  0
SECTION
  2
HEADER
  9
$ACADVER
  1
AC1027
  9
$ACADMAINTVER
 70
   125
  9
$DWGCODEPAGE
  3
ANSI_1252
  9
$REQUIREDVERSIONS
160
                 0
  9
$INSBASE
 10
0.0
 20
0.0
 30
0.0
  9
$EXTMIN
 10
3736.02410894191
 20
1466.081084754644
 30
0.0
  9
$EXTMAX
 10
4198.210757250508
 20
1679.923532066971
 30
0.0
  9
$LIMMIN
 10
0.0
 20
0.0
  9
$LIMMAX
 10
8410.0
 20
5940.0
  9
$ORTHOMODE
 70
     0
  9
$REGENMODE
 70
     1
  9
$FILLMODE
 70
     1
  9
$QTEXTMODE
 70
     0
  9
$MIRRTEXT
 70
     0
  9
$LTSCALE
 40
0.5
  9
$ATTMODE
 70
     1
  9
$TEXTSIZE
 40
2.5
  9
$TRACEWID
 40
0.05
  9
$TEXTSTYLE
  7
STANDARD
  9
$CLAYER
  8
SS_025
  9
$CELTYPE
  6
BYLAYER
  9
$CECOLOR
 62
   256
  9
$CELTSCALE
 40
0.5
  9
$DISPSILH
 70
     0
  9
$DIMSCALE
 40
1.0
  9
$DIMASZ
 40
2.0
  9
$DIMEXO
 40
2.0
  9
$DIMDLI
 40
6.0
  9
$DIMRND
 40
0.0
  9
$DIMDLE
 40
1.0
  9
$DIMEXE
 40
1.0
  9
$DIMTP
 40
0.0
  9
$DIMTM
 40
0.0
  9
$DIMTXT
 40
3.0
  9
$DIMCEN
 40
0.0
  9
$DIMTSZ
 40
0.0
  9
$DIMTOL
 70
     0
  9
$DIMLIM
 70
     0
  9
$DIMTIH
 70
     0
  9
$DIMTOH
 70
     0
  9
$DIMSE1
 70
     0
  9
$DIMSE2
 70
     0
  9
$DIMTAD
 70
     1
  9
$DIMZIN
 70
     8
  9
$DIMBLK
  1

  9
$DIMASO
 70
     1
  9
$DIMSHO
 70
     1
  9
$DIMPOST
  1

  9
$DIMAPOST
  1

  9
$DIMALT
 70
     0
  9
$DIMALTD
 70
     2
  9
$DIMALTF
 40
0.03937
  9
$DIMLFAC
 40
1.0
  9
$DIMTOFL
 70
     1
  9
$DIMTVP
 40
0.0
  9
$DIMTIX
 70
     1
  9
$DIMSOXD
 70
     0
  9
$DIMSAH
 70
     1
  9
$DIMBLK1
  1
OBLIQUE
  9
$DIMBLK2
  1
OBLIQUE
  9
$DIMSTYLE
  2
BEM-1
  9
$DIMCLRD
 70
    10
  9
$DIMCLRE
 70
    10
  9
$DIMCLRT
 70
     7
  9
$DIMTFAC
 40
1.0
  9
$DIMGAP
 40
1.0
  9
$DIMJUST
 70
     0
  9
$DIMSD1
 70
     0
  9
$DIMSD2
 70
     0
  9
$DIMTOLJ
 70
     1
  9
$DIMTZIN
 70
     8
  9
$DIMALTZ
 70
     0
  9
$DIMALTTZ
 70
     0
  9
$DIMUPT
 70
     0
  9
$DIMDEC
 70
     1
  9
$DIMTDEC
 70
     1
  9
$DIMALTU
 70
     2
  9
$DIMALTTD
 70
     2
  9
$DIMTXSTY
  7
BEMASSUNG
  9
$DIMAUNIT
 70
     0
  9
$DIMADEC
 70
     1
  9
$DIMALTRND
 40
0.0
  9
$DIMAZIN
 70
     2
  9
$DIMDSEP
 70
    46
  9
$DIMATFIT
 70
     3
  9
$DIMFRAC
 70
     0
  9
$DIMLDRBLK
  1

  9
$DIMLUNIT
 70
     2
  9
$DIMLWD
 70
    -2
  9
$DIMLWE
 70
    -2
  9
$DIMTMOVE
 70
     2
  9
$DIMFXL
 40
1.0
  9
$DIMFXLON
 70
     0
  9
$DIMJOGANG
 40
0.7853981633974483
  9
$DIMTFILL
 70
     0
  9
$DIMTFILLCLR
 70
     0
  9
$DIMARCSYM
 70
     0
  9
$DIMLTYPE
  6

  9
$DIMLTEX1
  6

  9
$DIMLTEX2
  6

  9
$DIMTXTDIRECTION
 70
     0
  9
$LUNITS
 70
     2
  9
$LUPREC
 70
     2
  9
$SKETCHINC
 40
0.1
  9
$FILLETRAD
 40
0.0
  9
$AUNITS
 70
     0
  9
$AUPREC
 70
     2
  9
$MENU
  1
acad
  9
$ELEVATION
 40
0.0
  9
$PELEVATION
 40
0.0
  9
$THICKNESS
 40
0.0
  9
$LIMCHECK
 70
     0
  9
$CHAMFERA
 40
10.0
  9
$CHAMFERB
 40
10.0
  9
$CHAMFERC
 40
20.0
  9
$CHAMFERD
 40
0.0
  9
$SKPOLY
 70
     0
  9
$TDCREATE
 40
2457784.414421297
  9
$TDUCREATE
 40
2457784.372754630
  9
$TDUPDATE
 40
2457784.730289352
  9
$TDUUPDATE
 40
2457784.688622685
  9
$TDINDWG
 40
0.3167939815
  9
$TDUSRTIMER
 40
0.3167939815
  9
$USRTIMER
 70
     1
  9
$ANGBASE
 50
0.0
  9
$ANGDIR
 70
     0
  9
$PDMODE
 70
    35
  9
$PDSIZE
 40
3.0
  9
$PLINEWID
 40
0.0
  9
$SPLFRAME
 70
     0
  9
$SPLINETYPE
 70
     6
  9
$SPLINESEGS
 70
     8
  9
$HANDSEED
  5
1ED
  9
$SURFTAB1
 70
     6
  9
$SURFTAB2
 70
     6
  9
$SURFTYPE
 70
     6
  9
$SURFU
 70
     6
  9
$SURFV
 70
     6
  9
$UCSBASE
  2

  9
$UCSNAME
  2

  9
$UCSORG
 10
0.0
 20
0.0
 30
0.0
  9
$UCSXDIR
 10
1.0
 20
0.0
 30
0.0
  9
$UCSYDIR
 10
0.0
 20
1.0
 30
0.0
  9
$UCSORTHOREF
  2

  9
$UCSORTHOVIEW
 70
     0
  9
$UCSORGTOP
 10
0.0
 20
0.0
 30
0.0
  9
$UCSORGBOTTOM
 10
0.0
 20
0.0
 30
0.0
  9
$UCSORGLEFT
 10
0.0
 20
0.0
 30
0.0
  9
$UCSORGRIGHT
 10
0.0
 20
0.0
 30
0.0
  9
$UCSORGFRONT
 10
0.0
 20
0.0
 30
0.0
  9
$UCSORGBACK
 10
0.0
 20
0.0
 30
0.0
  9
$PUCSBASE
  2

  9
$PUCSNAME
  2

  9
$PUCSORG
 10
0.0
 20
0.0
 30
0.0
  9
$PUCSXDIR
 10
1.0
 20
0.0
 30
0.0
  9
$PUCSYDIR
 10
0.0
 20
1.0
 30
0.0
  9
$PUCSORTHOREF
  2

  9
$PUCSORTHOVIEW
 70
     0
  9
$PUCSORGTOP
 10
0.0
 20
0.0
 30
0.0
  9
$PUCSORGBOTTOM
 10
0.0
 20
0.0
 30
0.0
  9
$PUCSORGLEFT
 10
0.0
 20
0.0
 30
0.0
  9
$PUCSORGRIGHT
 10
0.0
 20
0.0
 30
0.0
  9
$PUCSORGFRONT
 10
0.0
 20
0.0
 30
0.0
  9
$PUCSORGBACK
 10
0.0
 20
0.0
 30
0.0
  9
$USERI1
 70
     2
  9
$USERI2
 70
     0
  9
$USERI3
 70
     0
  9
$USERI4
 70
     0
  9
$USERI5
 70
     0
  9
$USERR1
 40
0.0
  9
$USERR2
 40
0.01
  9
$USERR3
 40
0.0
  9
$USERR4
 40
0.0
  9
$USERR5
 40
0.0
  9
$WORLDVIEW
 70
     1
  9
$SHADEDGE
 70
     3
  9
$SHADEDIF
 70
    70
  9
$TILEMODE
 70
     1
  9
$MAXACTVP
 70
    64
  9
$PINSBASE
 10
0.0
 20
0.0
 30
0.0
  9
$PLIMCHECK
 70
     0
  9
$PEXTMIN
 10
-199.0
 20
-1.000000000000007
 30
0.0
  9
$PEXTMAX
 10
1.0
 20
286.0
 30
0.0
  9
$PLIMMIN
 10
-203.9952541084224
 20
-5.99728053865303
  9
$PLIMMAX
 10
6.004745891577641
 20
291.002719461347
  9
$UNITMODE
 70
     0
  9
$VISRETAIN
 70
     0
  9
$PLINEGEN
 70
     0
  9
$PSLTSCALE
 70
     1
  9
$TREEDEPTH
 70
  3020
  9
$CMLSTYLE
  2
STANDARD
  9
$CMLJUST
 70
     0
  9
$CMLSCALE
 40
20.0
  9
$PROXYGRAPHICS
 70
     1
  9
$MEASUREMENT
 70
     1
  9
$CELWEIGHT
370
    -1
  9
$ENDCAPS
280
     0
  9
$JOINSTYLE
280
     0
  9
$LWDISPLAY
290
     0
  9
$INSUNITS
 70
     4
  9
$HYPERLINKBASE
  1

  9
$STYLESHEET
  1

  9
$XEDIT
290
     1
  9
$CEPSNTYPE
380
     0
  9
$PSTYLEMODE
290
     1
  9
$FINGERPRINTGUID
  2
{1CA94BBB-75E8-8548-97A1-7A4D3BA03FA3}
  9
$VERSIONGUID
  2
{0795B7CE-0B8E-BF44-87A1-6631F8016589}
  9
$EXTNAMES
290
     1
  9
$PSVPSCALE
 40
0.0
  9
$OLESTARTUP
290
     0
  9
$SORTENTS
280
   127
  9
$INDEXCTL
280
     0
  9
$HIDETEXT
280
     1
  9
$XCLIPFRAME
280
     0
  9
$HALOGAP
280
     0
  9
$OBSCOLOR
 70
   257
  9
$OBSLTYPE
280
     0
  9
$INTERSECTIONDISPLAY
280
     0
  9
$INTERSECTIONCOLOR
 70
   257
  9
$DIMASSOC
280
     2
  9
$PROJECTNAME
  1

  9
$CAMERADISPLAY
290
     0
  9
$LENSLENGTH
 40
50.0
  9
$CAMERAHEIGHT
 40
0.0
  9
$STEPSPERSEC
 40
2.0
  9
$STEPSIZE
 40
6.0
  9
$3DDWFPREC
 40
2.0
  9
$PSOLWIDTH
 40
0.25
  9
$PSOLHEIGHT
 40
4.0
  9
$LOFTANG1
 40
1.570796326794896
  9
$LOFTANG2
 40
1.570796326794896
  9
$LOFTMAG1
 40
0.0
  9
$LOFTMAG2
 40
0.0
  9
$LOFTPARAM
 70
     7
  9
$LOFTNORMALS
280
     1
  9
$LATITUDE
 40
37.795
  9
$LONGITUDE
 40
-122.394
  9
$NORTHDIRECTION
 40
0.0
  9
$TIMEZONE
 70
 -8000
  9
$LIGHTGLYPHDISPLAY
280
     1
  9
$TILEMODELIGHTSYNCH
280
     1
  9
$CMATERIAL
347
45
  9
$SOLIDHIST
280
     1
  9
$SHOWHIST
280
     1
  9
$DWFFRAME
280
     2
  9
$DGNFRAME
280
     0
  9
$REALWORLDSCALE
290
     1
  9
$INTERFERECOLOR
 62
     1
  9
$INTERFEREOBJVS
345
52
  9
$INTERFEREVPVS
346
53
  9
$CSHADOW
280
     0
  9
$SHADOWPLANELOCATION
 40
0.0
  0
ENDSEC
  0
SECTION
  2
CLASSES
  0
CLASS
  1
DICTIONARYVAR
  2
AcDbDictionaryVar
  3
ObjectDBX Classes
 90
        0
 91
        9
280
     0
281
     0
  0
CLASS
  1
ACDBDICTIONARYWDFLT
  2
AcDbDictionaryWithDefault
  3
ObjectDBX Classes
 90
        0
 91
        1
280
     0
281
     0
  0
CLASS
  1
RTEXT
  2
RText
  3
RText|AutoCAD Express Tool|expresstools@autodesk.com
 90
     3071
 91
        0
280
     1
281
     1
  0
CLASS
  1
TABLESTYLE
  2
AcDbTableStyle
  3
ObjectDBX Classes
 90
     4095
 91
        2
280
     0
281
     0
  0
CLASS
  1
FIELD
  2
AcDbField
  3
ObjectDBX Classes
 90
     1152
 91
        0
280
     0
281
     0
  0
CLASS
  1
FIELDLIST
  2
AcDbFieldList
  3
ObjectDBX Classes
 90
     1152
 91
        1
280
     0
281
     0
  0
CLASS
  1
SORTENTSTABLE
  2
AcDbSortentsTable
  3
ObjectDBX Classes
 90
        0
 91
        2
280
     0
281
     0
  0
CLASS
  1
MATERIAL
  2
AcDbMaterial
  3
ObjectDBX Classes
 90
     1153
 91
        3
280
     0
281
     0
  0
CLASS
  1
VISUALSTYLE
  2
AcDbVisualStyle
  3
ObjectDBX Classes
 90
     4095
 91
        3
280
     0
281
     0
  0
CLASS
  1
ACAD_TABLE
  2
AcDbTable
  3
ObjectDBX Classes
 90
     1025
 91
        0
280
     0
281
     1
  0
CLASS
  1
SCALE
  2
AcDbScale
  3
ObjectDBX Classes
 90
     1153
 91
       32
280
     0
281
     0
  0
CLASS
  1
MLEADERSTYLE
  2
AcDbMLeaderStyle
  3
ACDB_MLEADERSTYLE_CLASS
 90
     4095
 91
        0
280
     0
281
     0
  0
CLASS
  1
CELLSTYLEMAP
  2
AcDbCellStyleMap
  3
ObjectDBX Classes
 90
     1152
 91
        2
280
     0
281
     0
  0
CLASS
  1
PLOTSETTINGS
  2
AcDbPlotSettings
  3
ObjectDBX Classes
 90
        0
 91
        0
280
     0
281
     0
  0
CLASS
  1
DIMASSOC
  2
AcDbDimAssoc
  3
"AcDbDimAssoc|Product Desc:     AcDim ARX App For Dimension|Company:          Autodesk, Inc.|WEB Address:      www.autodesk.com"
 90
        0
 91
        2
280
     0
281
     0
  0
CLASS
  1
SOLID_BACKGROUND
  2
AcDbSolidBackground
  3
SCENEOE
 90
     4095
 91
        0
280
     1
281
     0
  0
CLASS
  1
NPOCOLLECTION
  2
AcDbImpNonPersistentObjectsCollection
  3
ObjectDBX Classes
 90
     1153
 91
        0
280
     0
281
     0
  0
CLASS
  1
ACAD_EVALUATION_GRAPH
  2
AcDbEvalGraph
  3
ObjectDBX Classes
 90
     1153
 91
        0
280
     0
281
     0
  0
CLASS
  1
ACAECUSTOBJ
  2
AcAeEditorObj
  3
AcAeEditorObj
 90
     1024
 91
        0
280
     1
281
     0
  0
CLASS
  1
ACDB_DYNAMICBLOCKPURGEPREVENTER_VERSION
  2
AcDbDynamicBlockPurgePreventer
  3
ObjectDBX Classes
 90
     1153
 91
        0
280
     0
281
     0
  0
CLASS
  1
BLOCKPOLARPARAMETER
  2
AcDbBlockPolarParameter
  3
ObjectDBX Classes
 90
     1153
 91
        0
280
     0
281
     0
  0
CLASS
  1
BLOCKPOLARGRIP
  2
AcDbBlockPolarGrip
  3
ObjectDBX Classes
 90
     1153
 91
        0
280
     0
281
     0
  0
CLASS
  1
BLOCKGRIPLOCATIONCOMPONENT
  2
AcDbBlockGripExpr
  3
ObjectDBX Classes
 90
     1153
 91
        0
280
     0
281
     0
  0
CLASS
  1
BLOCKPOLARSTRETCHACTION
  2
AcDbBlockPolarStretchAction
  3
ObjectDBX Classes
 90
     1153
 91
        0
280
     0
281
     0
  0
CLASS
  1
EXACXREFPANELOBJECT
  2
ExAcXREFPanelObject
  3
EXAC_ESW
 90
     1025
 91
        0
280
     0
281
     0
  0
CLASS
  1
ACDB_ALDIMOBJECTCONTEXTDATA_CLASS
  2
AcDbAlignedDimensionObjectContextData
  3
ObjectDBX Classes
 90
     1153
 91
        0
280
     0
281
     0
  0
CLASS
  1
MULTILEADER
  2
AcDbMLeader
  3
ACDB_MLEADER_CLASS
 90
     1025
 91
        0
280
     0
281
     1
  0
CLASS
  1
ACDB_MLEADEROBJECTCONTEXTDATA_CLASS
  2
AcDbMLeaderObjectContextData
  3
ObjectDBX Classes
 90
     1153
 91
        0
280
     0
281
     0
  0
CLASS
  1
ACDB_MTEXTOBJECTCONTEXTDATA_CLASS
  2
AcDbMTextObjectContextData
  3
ObjectDBX Classes
 90
     1153
 91
        0
280
     0
281
     0
  0
CLASS
  1
TABLECONTENT
  2
AcDbTableContent
  3
ObjectDBX Classes
 90
     1152
 91
        0
280
     0
281
     0
  0
CLASS
  1
TABLEGEOMETRY
  2
AcDbTableGeometry
  3
ObjectDBX Classes
 90
     1152
 91
        0
280
     0
281
     0
  0
CLASS
  1
ACDB_ANGDIMOBJECTCONTEXTDATA_CLASS
  2
AcDbAngularDimensionObjectContextData
  3
ObjectDBX Classes
 90
     1153
 91
        0
280
     0
281
     0
  0
CLASS
  1
ACDB_DMDIMOBJECTCONTEXTDATA_CLASS
  2
AcDbDiametricDimensionObjectContextData
  3
ObjectDBX Classes
 90
     1153
 91
        0
280
     0
281
     0
  0
CLASS
  1
ACDB_RADIMOBJECTCONTEXTDATA_CLASS
  2
AcDbRadialDimensionObjectContextData
  3
ObjectDBX Classes
 90
     1153
 91
        0
280
     0
281
     0
  0
CLASS
  1
ACDBSECTIONVIEWSTYLE
  2
AcDbSectionViewStyle
  3
ObjectDBX Classes
 90
     1025
 91
        0
280
     0
281
     0
  0
CLASS
  1
ACDBDETAILVIEWSTYLE
  2
AcDbDetailViewStyle
  3
ObjectDBX Classes
 90
     1025
 91
        0
280
     0
281
     0
  0
CLASS
  1
BLOCKPROPERTIESTABLE
  2
AcDbBlockPropertiesTable
  3
ObjectDBX Classes
 90
     1153
 91
        0
280
     0
281
     0
  0
CLASS
  1
BLOCKPROPERTIESTABLEGRIP
  2
AcDbBlockPropertiesTableGrip
  3
ObjectDBX Classes
 90
     1153
 91
        0
280
     0
281
     0
  0
CLASS
  1
BLOCKPROPERTIESTABLEGRIPENTITY
  2
AcDbBlockPropertiesTableGripEntity
  3
ObjectDBX Classes
 90
     1025
 91
        0
280
     0
281
     1
  0
CLASS
  1
ACAEEEMGROBJ
  2
AcAeEEMgrObj
  3
AcAeEEMgrObj
 90
     1024
 91
        0
280
     0
281
     0
  0
CLASS
  1
BLOCKPROPERTIESTABLEENTITY
  2
AcDbBlockPropertiesTableEntity
  3
ObjectDBX Classes
 90
     1025
 91
        0
280
     0
281
     1
  0
CLASS
  1
ACDB_DYNAMICBLOCKPROXYNODE
  2
AcDbDynamicBlockProxyNode
  3
ObjectDBX Classes
 90
     1153
 91
        0
280
     0
281
     0
  0
CLASS
  1
ACDB_BLOCKREPRESENTATION_DATA
  2
AcDbBlockRepresentationData
  3
ObjectDBX Classes
 90
     1153
 91
        0
280
     0
281
     0
  0
CLASS
  1
BLOCKLOOKUPACTION
  2
AcDbBlockLookupAction
  3
ObjectDBX Classes
 90
     1153
 91
        0
280
     0
281
     0
  0
CLASS
  1
BLOCKLOOKUPPARAMETER
  2
AcDbBlockLookupParameter
  3
ObjectDBX Classes
 90
     1153
 91
        0
280
     0
281
     0
  0
CLASS
  1
BLOCKLOOKUPGRIP
  2
AcDbBlockLookupGrip
  3
ObjectDBX Classes
 90
     1153
 91
        0
280
     0
281
     0
  0
CLASS
  1
LOOKUPGRIPENTITY
  2
AcDbBlockLookupGripEntity
  3
ObjectDBX Classes
 90
     1025
 91
        0
280
     0
281
     1
  0
CLASS
  1
LOOKUPPARAMETERENTITY
  2
AcDbBlockLookupParameterEntity
  3
ObjectDBX Classes
 90
     1025
 91
        0
280
     0
281
     1
  0
CLASS
  1
LOOKUPACTIONENTITY
  2
AcDbBlockLookupActionEntity
  3
ObjectDBX Classes
 90
     1025
 91
        0
280
     0
281
     1
  0
CLASS
  1
BLOCKVISIBILITYPARAMETER
  2
AcDbBlockVisibilityParameter
  3
ObjectDBX Classes
 90
     1153
 91
        0
280
     0
281
     0
  0
CLASS
  1
BLOCKVISIBILITYGRIP
  2
AcDbBlockVisibilityGrip
  3
ObjectDBX Classes
 90
     1153
 91
        0
280
     0
281
     0
  0
CLASS
  1
VISIBILITYGRIPENTITY
  2
AcDbBlockVisibilityGripEntity
  3
ObjectDBX Classes
 90
     1025
 91
        0
280
     0
281
     1
  0
CLASS
  1
VISIBILITYPARAMETERENTITY
  2
AcDbBlockVisibilityParameterEntity
  3
ObjectDBX Classes
 90
     1025
 91
        0
280
     0
281
     1
  0
CLASS
  1
BLOCKFLIPPARAMETER
  2
AcDbBlockFlipParameter
  3
ObjectDBX Classes
 90
     1153
 91
        0
280
     0
281
     0
  0
CLASS
  1
BLOCKFLIPGRIP
  2
AcDbBlockFlipGrip
  3
ObjectDBX Classes
 90
     1153
 91
        0
280
     0
281
     0
  0
CLASS
  1
FLIPGRIPENTITY
  2
AcDbBlockFlipGripEntity
  3
ObjectDBX Classes
 90
     1025
 91
        0
280
     0
281
     1
  0
CLASS
  1
FLIPPARAMETERENTITY
  2
AcDbBlockFlipParameterEntity
  3
ObjectDBX Classes
 90
     1025
 91
        0
280
     0
281
     1
  0
CLASS
  1
BLOCKFLIPACTION
  2
AcDbBlockFlipAction
  3
ObjectDBX Classes
 90
     1153
 91
        0
280
     0
281
     0
  0
CLASS
  1
FLIPACTIONENTITY
  2
AcDbBlockFlipActionEntity
  3
ObjectDBX Classes
 90
     1025
 91
        0
280
     0
281
     1
  0
CLASS
  1
RAPIDRTRENDERSETTINGS
  2
AcDbRapidRTRenderSettings
  3
ObjectDBX Classes
 90
     1024
 91
        0
280
     1
281
     0
  0
CLASS
  1
BLOCKMOVEACTION
  2
AcDbBlockMoveAction
  3
ObjectDBX Classes
 90
     1153
 91
        0
280
     0
281
     0
  0
CLASS
  1
BLOCKROTATIONPARAMETER
  2
AcDbBlockRotationParameter
  3
ObjectDBX Classes
 90
     1153
 91
        0
280
     0
281
     0
  0
CLASS
  1
BLOCKROTATIONGRIP
  2
AcDbBlockRotationGrip
  3
ObjectDBX Classes
 90
     1153
 91
        0
280
     0
281
     0
  0
CLASS
  1
BLOCKROTATEACTION
  2
AcDbBlockRotateAction
  3
ObjectDBX Classes
 90
     1153
 91
        0
280
     0
281
     0
  0
ENDSEC
  0
SECTION
  2
TABLES
  0
TABLE
  2
VPORT
  5
2B
330
0
100
AcDbSymbolTable
 70
     1
1001
ACAD
1000
DbSaveVer
1071
        5
  0
VPORT
  5
2C
330
2B
100
AcDbSymbolTableRecord
100
AcDbViewportTableRecord
  2
*Active
 70
     0
 10
0.0
 20
0.0
 11
1.0
 21
1.0
 12
4194.346446415539
 22
1576.205428226057
 13
0.0
 23
0.0
 14
0.25
 24
0.25
 15
100.0
 25
100.0
 16
0.0
 26
0.0
 36
1.0
 17
0.0
 27
0.0
 37
0.0
 40
269.7158353355978
 41
2.282051282051281
 42
50.0
 43
0.0
 44
0.0
 50
0.0
 51
0.0
 71
     0
 72
  1000
 73
     1
 74
     3
 75
     0
 76
     0
 77
     0
 78
     0
281
     0
 65
     1
110
0.0
120
0.0
130
0.0
111
1.0
121
0.0
131
0.0
112
0.0
122
1.0
132
0.0
 79
     0
146
0.0
348
2D
 60
     2
 61
     5
292
     1
282
     1
141
0.0
142
0.0
 63
   250
421
  3355443
1001
ACAD_NAV_VCDISPLAY
1070
     3
  0
ENDTAB
  0
TABLE
  2
LTYPE
  5
26
330
0
100
AcDbSymbolTable
 70
     3
  0
LTYPE
  5
27
330
26
100
AcDbSymbolTableRecord
100
AcDbLinetypeTableRecord
  2
BYBLOCK
 70
     0
  3

 72
    65
 73
     0
 40
0.0
  0
LTYPE
  5
28
330
26
100
AcDbSymbolTableRecord
100
AcDbLinetypeTableRecord
  2
BYLAYER
 70
     0
  3

 72
    65
 73
     0
 40
0.0
  0
LTYPE
  5
10
330
26
100
AcDbSymbolTableRecord
100
AcDbLinetypeTableRecord
  2
CONTINUOUS
 70
     0
  3
Solid line
 72
    65
 73
     0
 40
0.0
  0
LTYPE
  5
4E
330
26
100
AcDbSymbolTableRecord
100
AcDbLinetypeTableRecord
  2
ACAD_ISO02W100
 70
     0
  3
__ __ __ __ __ __ __ __ __ __ __ __ __ __ __ __
 72
    65
 73
     2
 40
15.0
 49
12.0
 74
     0
 49
-3.0
 74
     0
  0
LTYPE
  5
100
330
26
100
AcDbSymbolTableRecord
100
AcDbLinetypeTableRecord
  2
ACAD_ISO10W100
 70
     0
  3
__ . __ . __ . __ . __ . __ . __ . __ . __ . __
 72
    65
 73
     4
 40
18.5
 49
12.0
 74
     0
 49
-3.0
 74
     0
 49
0.5
 74
     0
 49
-3.0
 74
     0
  0
ENDTAB
  0
TABLE
  2
LAYER
  5
1D
102
{ACAD_XDICTIONARY
360
1E
102
}
330
0
100
AcDbSymbolTable
 70
    10
  0
LAYER
  5
6
102
{ACAD_XDICTIONARY
360
7
102
}
330
1D
100
AcDbSymbolTableRecord
100
AcDbLayerTableRecord
  2
0
 70
     0
 62
     7
  6
CONTINUOUS
370
    -3
390
9
347
C
348
0
  0
LAYER
  5
1D5
102
{ACAD_XDICTIONARY
360
1D6
102
}
330
1D
100
AcDbSymbolTableRecord
100
AcDbLayerTableRecord
  2
V1_035
 70
     0
 62
     3
  6
CONTINUOUS
370
    35
390
9
347
C
348
0
  0
LAYER
  5
1C0
102
{ACAD_XDICTIONARY
360
1C1
102
}
330
1D
100
AcDbSymbolTableRecord
100
AcDbLayerTableRecord
  2
DEFPOINTS
 70
     0
 62
   211
  6
CONTINUOUS
290
     0
370
    -3
390
9
347
C
348
0
  0
LAYER
  5
1B4
102
{ACAD_XDICTIONARY
360
1B5
102
}
330
1D
100
AcDbSymbolTableRecord
100
AcDbLayerTableRecord
  2
BEM-1
 70
     0
 62
    10
  6
CONTINUOUS
370
    -3
390
9
347
C
348
0
  0
LAYER
  5
4B
102
{ACAD_XDICTIONARY
360
4C
102
}
330
1D
100
AcDbSymbolTableRecord
100
AcDbLayerTableRecord
  2
SS_025
 70
     0
 62
     4
  6
ACAD_ISO02W100
370
    25
390
9
347
C
348
0
  0
LAYER
  5
7B
102
{ACAD_XDICTIONARY
360
7C
102
}
330
1D
100
AcDbSymbolTableRecord
100
AcDbLayerTableRecord
  2
SYMBOLE_1
 70
     0
 62
     2
  6
CONTINUOUS
370
    -3
390
9
347
C
348
0
  0
LAYER
  5
77
102
{ACAD_XDICTIONARY
360
78
102
}
330
1D
100
AcDbSymbolTableRecord
100
AcDbLayerTableRecord
  2
SS_035
 70
     0
 62
     3
  6
ACAD_ISO02W100
370
    35
390
9
347
C
348
0
  0
LAYER
  5
FD
102
{ACAD_XDICTIONARY
360
FE
102
}
330
1D
100
AcDbSymbolTableRecord
100
AcDbLayerTableRecord
  2
SP_035
 70
     0
 62
     3
  6
ACAD_ISO10W100
370
    35
390
9
347
C
348
0
  0
LAYER
  5
111
102
{ACAD_XDICTIONARY
360
112
102
}
330
1D
100
AcDbSymbolTableRecord
100
AcDbLayerTableRecord
  2
SCHRAFFUR
 70
     0
 62
     9
  6
CONTINUOUS
370
    -3
390
9
347
C
348
0
  0
LAYER
  5
10B
102
{ACAD_XDICTIONARY
360
10C
102
}
330
1D
100
AcDbSymbolTableRecord
100
AcDbLayerTableRecord
  2
V1_010
 70
     0
 62
    11
  6
CONTINUOUS
370
     9
390
9
347
C
348
0
1001
AcAecLayerStandard
1000

1000

1001
AcCmTransparency
1071
        0
  0
ENDTAB
  0
TABLE
  2
STYLE
  5
23
330
0
100
AcDbSymbolTable
 70
     4
  0
STYLE
  5
24
330
23
100
AcDbSymbolTableRecord
100
AcDbTextStyleTableRecord
  2
STANDARD
 70
     0
 40
0.0
 41
1.0
 50
0.0
 71
     0
 42
2.5
  3
arial.ttf
  4

1001
ACAD
1000
Arial
1071
       34
  0
STYLE
  5
33
330
23
100
AcDbSymbolTableRecord
100
AcDbTextStyleTableRecord
  2
BEMASSUNG
 70
     0
 40
0.0
 41
1.0
 50
0.0
 71
     0
 42
2.5
  3
arial.ttf
  4

1001
ACAD
1000
Arial
1071
       34
  0
STYLE
  5
40
330
23
100
AcDbSymbolTableRecord
100
AcDbTextStyleTableRecord
  2
Beschlag
 70
     0
 40
0.0
 41
1.0
 50
0.0
 71
     0
 42
3.5
  3
arial.ttf
  4

1001
ACAD
1000
Arial
1071
       34
  0
STYLE
  5
3D
330
23
100
AcDbSymbolTableRecord
100
AcDbTextStyleTableRecord
  2
RK_Beschriftung
 70
     0
 40
0.0
 41
1.0
 50
0.0
 71
     0
 42
2.5
  3
arial.ttf
  4

1001
AcadAnnotative
1000
AnnotativeData
1002
{
1070
     1
1070
     1
1002
}
1001
ACAD
1000
Arial
1071
       34
  0
ENDTAB
  0
TABLE
  2
VIEW
  5
29
330
0
100
AcDbSymbolTable
 70
     0
  0
ENDTAB
  0
TABLE
  2
UCS
  5
2A
330
0
100
AcDbSymbolTable
 70
     0
  0
ENDTAB
  0
TABLE
  2
APPID
  5
30
330
0
100
AcDbSymbolTable
 70
    12
  0
APPID
  5
22
330
30
100
AcDbSymbolTableRecord
100
AcDbRegAppTableRecord
  2
ACAD
 70
     0
  0
APPID
  5
15
330
30
100
AcDbSymbolTableRecord
100
AcDbRegAppTableRecord
  2
ACAD_PSEXT
 70
     0
  0
APPID
  5
38
330
30
100
AcDbSymbolTableRecord
100
AcDbRegAppTableRecord
  2
ACAD_DSTYLE_DIMJAG
 70
     0
  0
APPID
  5
39
330
30
100
AcDbSymbolTableRecord
100
AcDbRegAppTableRecord
  2
ACAD_DSTYLE_DIMTALN
 70
     0
  0
APPID
  5
3E
330
30
100
AcDbSymbolTableRecord
100
AcDbRegAppTableRecord
  2
AcadAnnotative
 70
     0
  0
APPID
  5
10E
330
30
100
AcDbSymbolTableRecord
100
AcDbRegAppTableRecord
  2
AcAecLayerStandard
 70
     0
  0
APPID
  5
2F
330
30
100
AcDbSymbolTableRecord
100
AcDbRegAppTableRecord
  2
ACAD_NAV_VCDISPLAY
 70
     0
  0
APPID
  5
10F
330
30
100
AcDbSymbolTableRecord
100
AcDbRegAppTableRecord
  2
AcCmTransparency
 70
     0
  0
APPID
  5
7E
330
30
100
AcDbSymbolTableRecord
100
AcDbRegAppTableRecord
  2
AcDbBlockRepETag
 70
     0
  0
APPID
  5
114
330
30
100
AcDbSymbolTableRecord
100
AcDbRegAppTableRecord
  2
GradientColor1ACI
 70
     0
  0
APPID
  5
115
330
30
100
AcDbSymbolTableRecord
100
AcDbRegAppTableRecord
  2
GradientColor2ACI
 70
     0
  0
APPID
  5
16
330
30
100
AcDbSymbolTableRecord
100
AcDbRegAppTableRecord
  2
PLOTTRANSPARENCY
 70
     0
  0
ENDTAB
  0
TABLE
  2
DIMSTYLE
  5
31
330
0
100
AcDbSymbolTable
 70
     5
100
AcDbDimStyleTable
 71
     5
340
32
340
3A
340
3B
340
3C
340
3F
  0
DIMSTYLE
105
3A
330
31
100
AcDbSymbolTableRecord
100
AcDbDimStyleTableRecord
  2
BEM-10
 70
     0
 40
10.0
 41
2.0
 42
2.0
 43
6.0
 44
1.0
 46
1.0
 73
     0
 74
     0
 77
     1
 78
     8
 79
     2
140
3.0
141
0.0
143
0.03937
147
1.0
172
     1
173
     1
174
     1
176
    10
177
    10
178
     7
179
     1
271
     1
272
     1
279
     2
284
     8
340
33
343
34
344
34
1001
ACAD_DSTYLE_DIMJAG
1070
   388
1040
1.5
1001
ACAD_DSTYLE_DIMTALN
1070
   392
1070
     0
  0
DIMSTYLE
105
3B
330
31
100
AcDbSymbolTableRecord
100
AcDbDimStyleTableRecord
  2
Standard
 70
     0
 41
2.5
 42
0.0
 43
6.0
 44
0.5
 73
     0
 74
     0
 77
     1
 78
     8
 79
     2
140
2.5
141
0.0
147
0.5
172
     1
176
    10
177
    10
179
     1
271
     1
272
     1
279
     2
340
24
1001
ACAD_DSTYLE_DIMJAG
1070
   388
1040
1.5
1001
ACAD_DSTYLE_DIMTALN
1070
   392
1070
     0
  0
DIMSTYLE
105
3F
330
31
100
AcDbSymbolTableRecord
100
AcDbDimStyleTableRecord
  2
OPO M1-1
 70
     0
 41
2.0
 42
2.0
 43
0.0
 44
1.0
 46
1.0
 73
     0
 74
     0
 77
     1
 78
     8
 79
     2
140
3.5
141
0.0
143
0.039370078740157
146
0.7114285714285716
147
1.0
172
     1
173
     1
174
     1
176
   256
177
   256
178
   256
179
     1
271
     1
272
     1
279
     2
284
     8
285
     8
286
     8
340
40
343
34
344
34
  0
DIMSTYLE
105
32
102
{ACAD_REACTORS
330
1C5
330
1B1
102
}
330
31
100
AcDbSymbolTableRecord
100
AcDbDimStyleTableRecord
  2
BEM-1
 70
     0
 41
2.0
 42
2.0
 43
6.0
 44
1.0
 46
1.0
 73
     0
 74
     0
 77
     1
 78
     8
 79
     2
140
3.0
141
0.0
143
0.03937
147
1.0
172
     1
173
     1
174
     1
176
    10
177
    10
178
     7
179
     1
271
     1
272
     1
279
     2
284
     8
340
33
343
34
344
34
1001
ACAD_DSTYLE_DIMJAG
1070
   388
1040
1.5
1001
ACAD_DSTYLE_DIMTALN
1070
   392
1070
     0
  0
DIMSTYLE
105
3C
330
31
100
AcDbSymbolTableRecord
100
AcDbDimStyleTableRecord
  2
RK_Beschriftung
 70
     0
 41
2.0
 42
2.0
 43
6.0
 44
1.0
 46
1.0
 73
     0
 74
     0
 77
     1
 78
     8
 79
     2
140
2.5
141
0.0
143
0.03937
147
1.0
172
     1
173
     1
174
     1
176
    73
177
    73
178
   256
179
     1
271
     1
272
     1
279
     2
284
     8
340
3D
343
34
344
34
1001
AcadAnnotative
1000
AnnotativeData
1002
{
1070
     1
1070
     1
1002
}
1001
ACAD_DSTYLE_DIMJAG
1070
   388
1040
1.5
1001
ACAD_DSTYLE_DIMTALN
1070
   392
1070
     0
  0
ENDTAB
  0
TABLE
  2
BLOCK_RECORD
  5
1
330
0
100
AcDbSymbolTable
 70
     3
  0
BLOCK_RECORD
  5
2
102
{ACAD_XDICTIONARY
360
3
102
}
330
1
100
AcDbSymbolTableRecord
100
AcDbBlockTableRecord
  2
*MODEL_SPACE
340
12
 70
     0
280
     1
281
     0
  0
BLOCK_RECORD
  5
17
102
{ACAD_XDICTIONARY
360
18
102
}
330
1
100
AcDbSymbolTableRecord
100
AcDbBlockTableRecord
  2
*Paper_Space
340
1B
 70
     0
280
     1
281
     0
  0
BLOCK_RECORD
  5
34
330
1
100
AcDbSymbolTableRecord
100
AcDbBlockTableRecord
  2
_OBLIQUE
340
0
310
2800000020000000200000000100080000000000000400000000000000000000000000000000000000000000000080000080000000808000800000008000800080800000C0C0C000C0DCC000F0CAA6000020400000206000002080000020A0000020C0000020E00000400000004020000040400000406000004080000040A0
310
000040C0000040E00000600000006020000060400000606000006080000060A0000060C0000060E00000800000008020000080400000806000008080000080A0000080C0000080E00000A0000000A0200000A0400000A0600000A0800000A0A00000A0C00000A0E00000C0000000C0200000C0400000C0600000C0800000C0
310
A00000C0C00000C0E00000E0000000E0200000E0400000E0600000E0800000E0A00000E0C00000E0E00040000000400020004000400040006000400080004000A0004000C0004000E00040200000402020004020400040206000402080004020A0004020C0004020E000404000004040200040404000404060004040800040
310
40A0004040C0004040E00040600000406020004060400040606000406080004060A0004060C0004060E00040800000408020004080400040806000408080004080A0004080C0004080E00040A0000040A0200040A0400040A0600040A0800040A0A00040A0C00040A0E00040C0000040C0200040C0400040C0600040C08000
310
40C0A00040C0C00040C0E00040E0000040E0200040E0400040E0600040E0800040E0A00040E0C00040E0E00080000000800020008000400080006000800080008000A0008000C0008000E00080200000802020008020400080206000802080008020A0008020C0008020E00080400000804020008040400080406000804080
310
008040A0008040C0008040E00080600000806020008060400080606000806080008060A0008060C0008060E00080800000808020008080400080806000808080008080A0008080C0008080E00080A0000080A0200080A0400080A0600080A0800080A0A00080A0C00080A0E00080C0000080C0200080C0400080C0600080C0
310
800080C0A00080C0C00080C0E00080E0000080E0200080E0400080E0600080E0800080E0A00080E0C00080E0E000C0000000C0002000C0004000C0006000C0008000C000A000C000C000C000E000C0200000C0202000C0204000C0206000C0208000C020A000C020C000C020E000C0400000C0402000C0404000C0406000C0
310
408000C040A000C040C000C040E000C0600000C0602000C0604000C0606000C0608000C060A000C060C000C060E000C0800000C0802000C0804000C0806000C0808000C080A000C080C000C080E000C0A00000C0A02000C0A04000C0A06000C0A08000C0A0A000C0A0C000C0A0E000C0C00000C0C02000C0C04000C0C06000
310
C0C08000C0C0A000F0FBFF00A4A0A000808080000000FF0000FF000000FFFF00FF000000FF00FF00FFFF0000FFFFFF00F6F6F6F6F6F6F6F6F6F6F6F6F6F6F6F6F6F6F6F6F6F6F6F6F6F6F6F6F6F6F6F6F600F6F6F6F6F6F6F6F6F6F6F6F6F6F6F6F6F6F6F6F6F6F6F6F6F6F6F6F6F6F6F6F600F6F6F6F6F6F6F6F6F6F6F6F6
310
F6F6F6F6F6F6F6F6F6F6F6F6F6F6F6F6F6F6F6F600F6F6F6F6F6F6F6F6F6F6F6F6F6F6F6F6F6F6F6F6F6F6F6F6F6F6F6F6F6F6F6F600F6F6F6F6F6F6F6F6F6F6F6F6F6F6F6F6F6F6F6F6F6F6F6F6F6F6F6F6F6F6F6F600F6F6F6F6F6F6F6F6F6F6F6F6F6F6F6F6F6F6F6F6F6F6F6F6F6F6F6F6F6F6F6F600F6F6F6F6F6F6F6
310
F6F6F6F6F6F6F6F6F6F6F6F6F6F6F6F6F6F6F6F6F6F6F6F6F600F6F6F6F6F6F6F6F6F6F6F6F6F6F6F6F6F6F6F6F6F6F6F6F6F6F6F6F6F6F6F6F600F6F6F6F6F6F6F6F6F6F6F6F6F6F6F6F6F6F6F6F6F6F6F6F6F6F6F6F6F6F6F6F600F6F6F6F6F6F6F6F6F6F6F6F6F6F6F6F6F6F6F6F6F6F6F6F6F6F6F6F6F6F6F6F600F6F6
310
F6F6F6F6F6F6F6F6F6F6F6F6F6F6F6F6F6F6F6F6F6F6F6F6F6F6F6F6F6F600F6F6F6F6F6F6F6F6F6F6F6F6F6F6F6F6F6F6F6F6F6F6F6F6F6F6F6F6F6F6F6F600F6F6F6F6F6F6F6F6F6F6F6F6F6F6F6F6F6F6F6F6F6F6F6F6F6F6F6F6F6F6F6F600F6F6F6F6F6F6F6F6F6F6F6F6F6F6F6F6F6F6F6F6F6F6F6F6F6F6F6F6F6F6
310
F6F600F6F6F6F6F6F6F6F6F6F6F6F6F6F6F6F6F6F6F6F6F6F6F6F6F6F6F6F6F6F6F6F600F6F6F6F6F6F6F6F6F6F6F6F6F6F6F6F6F6F6F6F6F6F6F6F6F6F6F6F6F6F6F6F600F6F6F6F6F6F6F6F6F6F6F6F6F6F6F6F6F6F6F6F6F6F6F6F6F6F6F6F6F6F6F6F600F6F6F6F6F6F6F6F6F6F6F6F6F6F6F6F6F6F6F6F6F6F6F6F6F6
310
F6F6F6F6F6F6F600F6F6F6F6F6F6F6F6F6F6F6F6F6F6F6F6F6F6F6F6F6F6F6F6F6F6F6F6F6F6F6F600F6F6F6F6F6F6F6F6F6F6F6F6F6F6F6F6F6F6F6F6F6F6F6F6F6F6F6F6F6F6F6F600F6F6F6F6F6F6F6F6F6F6F6F6F6F6F6F6F6F6F6F6F6F6F6F6F6F6F6F6F6F6F6F600F6F6F6F6F6F6F6F6F6F6F6F6F6F6F6F6F6F6F6F6
310
F6F6F6F6F6F6F6F6F6F6F6F600F6F6F6F6F6F6F6F6F6F6F6F6F6F6F6F6F6F6F6F6F6F6F6F6F6F6F6F6F6F6F6F600F6F6F6F6F6F6F6F6F6F6F6F6F6F6F6F6F6F6F6F6F6F6F6F6F6F6F6F6F6F6F6F600F6F6F6F6F6F6F6F6F6F6F6F6F6F6F6F6F6F6F6F6F6F6F6F6F6F6F6F6F6F6F6F600F6F6F6F6F6F6F6F6F6F6F6F6F6F6F6
310
F6F6F6F6F6F6F6F6F6F6F6F6F6F6F6F6F600F6F6F6F6F6F6F6F6F6F6F6F6F6F6F6F6F6F6F6F6F6F6F6F6F6F6F6F6F6F6F6F600F6F6F6F6F6F6F6F6F6F6F6F6F6F6F6F6F6F6F6F6F6F6F6F6F6F6F6F6F6F6F6F600F6F6F6F6F6F6F6F6F6F6F6F6F6F6F6F6F6F6F6F6F6F6F6F6F6F6F6F6F6F6F6F600F6F6F6F6F6F6F6F6F6F6
310
F6F6F6F6F6F6F6F6F6F6F6F6F6F6F6F6F6F6F6F6F6F600F6F6F6F6F6F6F6F6F6F6F6F6F6F6F6F6F6F6F6F6F6F6F6F6F6F6F6F6F6F6F6F6F6
102
{BLKREFS
331
1BC
331
1BD
331
1CD
331
1CE
102
}
 70
     0
280
     1
281
     0
  0
BLOCK_RECORD
  5
1C8
330
1
100
AcDbSymbolTableRecord
100
AcDbBlockTableRecord
  2
*D1
340
0
 70
     0
280
     1
281
     0
  0
BLOCK_RECORD
  5
1B7
330
1
100
AcDbSymbolTableRecord
100
AcDbBlockTableRecord
  2
*D2
340
0
 70
     0
280
     1
281
     0
  0
ENDTAB
  0
ENDSEC
  0
SECTION
  2
BLOCKS
  0
BLOCK
  5
5
330
2
100
AcDbEntity
  8
0
100
AcDbBlockBegin
  2
*MODEL_SPACE
 70
     0
 10
0.0
 20
0.0
 30
0.0
  3
*MODEL_SPACE
  1

  0
ENDBLK
  5
11
330
2
100
AcDbEntity
  8
0
100
AcDbBlockEnd
  0
BLOCK
  5
19
330
17
100
AcDbEntity
 67
     1
  8
0
100
AcDbBlockBegin
  2
*Paper_Space
 70
     0
 10
0.0
 20
0.0
 30
0.0
  3
*Paper_Space
  1

  0
ENDBLK
  5
1A
330
17
100
AcDbEntity
 67
     1
  8
0
100
AcDbBlockEnd
  0
BLOCK
  5
35
330
34
100
AcDbEntity
  8
0
100
AcDbBlockBegin
  2
_OBLIQUE
 70
     0
 10
0.0
 20
0.0
 30
0.0
  3
_OBLIQUE
  1

  0
LINE
  5
36
330
34
100
AcDbEntity
  8
0
  6
ByBlock
 62
     0
100
AcDbLine
 10
-0.5
 20
-0.5
 30
0.0
 11
0.5
 21
0.5
 31
0.0
  0
ENDBLK
  5
37
330
34
100
AcDbEntity
  8
0
100
AcDbBlockEnd
  0
BLOCK
  5
1C9
330
1C8
100
AcDbEntity
  8
0
 48
0.5
100
AcDbBlockBegin
  2
*D1
 70
     1
 10
0.0
 20
0.0
 30
0.0
  3
*D1
  1

  0
LINE
  5
1CA
330
1C8
100
AcDbEntity
  8
BEM-1
 62
    10
440
 16777216
 48
0.5
370
    -2
100
AcDbLine
 10
4154.210757250508
 20
1605.991048576803
 30
0.0
 11
4154.210757250508
 21
1616.007789866875
 31
0.0
  0
LINE
  5
1CB
330
1C8
100
AcDbEntity
  8
BEM-1
 62
    10
440
 16777216
 48
0.5
370
    -2
100
AcDbLine
 10
4179.210757250507
 20
1605.991048576803
 30
0.0
 11
4179.210757250507
 21
1616.007789866875
 31
0.0
  0
LINE
  5
1CC
330
1C8
100
AcDbEntity
  8
BEM-1
 62
    10
440
 16777216
 48
0.5
370
    -2
100
AcDbLine
 10
4153.210757250508
 20
1615.007789866875
 30
0.0
 11
4180.210757250509
 21
1615.007789866875
 31
0.0
  0
INSERT
  5
1CD
330
1C8
100
AcDbEntity
  8
BEM-1
 62
    10
440
 16777216
 48
0.5
370
    -2
100
AcDbBlockReference
  2
_OBLIQUE
 10
4154.210757250508
 20
1615.007789866875
 30
0.0
 41
2.0
 42
2.0
 43
2.0
 50
180.0
  0
INSERT
  5
1CE
330
1C8
100
AcDbEntity
  8
BEM-1
 62
    10
440
 16777216
 48
0.5
370
    -2
100
AcDbBlockReference
  2
_OBLIQUE
 10
4179.210757250507
 20
1615.007789866875
 30
0.0
 41
2.0
 42
2.0
 43
2.0
  0
MTEXT
  5
1CF
330
1C8
100
AcDbEntity
  8
BEM-1
 62
     7
440
 16777216
 48
0.5
100
AcDbMText
 10
4166.710757250508
 20
1617.53950883004
 30
0.0
 40
3.0
 41
0.0
 46
0.0
 71
     5
 72
     1
  1
\A1;25
  7
BEMASSUNG
 73
     1
 44
1.0
  0
POINT
  5
1D0
330
1C8
100
AcDbEntity
  8
DEFPOINTS
 62
     0
440
 16777216
 48
0.5
100
AcDbPoint
 10
4154.210757250508
 20
1603.991048576803
 30
0.0
  0
POINT
  5
1D1
330
1C8
100
AcDbEntity
  8
DEFPOINTS
 62
     0
440
 16777216
 48
0.5
100
AcDbPoint
 10
4179.210757250507
 20
1603.991048576803
 30
0.0
  0
POINT
  5
1D2
330
1C8
100
AcDbEntity
  8
DEFPOINTS
 62
     0
440
 16777216
 48
0.5
100
AcDbPoint
 10
4179.210757250507
 20
1615.007789866875
 30
0.0
  0
ENDBLK
  5
1D3
330
1C8
100
AcDbEntity
  8
0
 48
0.5
100
AcDbBlockEnd
  0
BLOCK
  5
1B8
330
1B7
100
AcDbEntity
  8
0
 48
0.5
100
AcDbBlockBegin
  2
*D2
 70
     1
 10
0.0
 20
0.0
 30
0.0
  3
*D2
  1

  0
LINE
  5
1B9
330
1B7
100
AcDbEntity
  8
BEM-1
 62
    10
440
 16777216
 48
0.5
370
    -2
100
AcDbLine
 10
4181.21075725051
 20
1603.991048576804
 30
0.0
 11
4190.374255309112
 21
1603.991048576804
 31
0.0
  0
LINE
  5
1BA
330
1B7
100
AcDbEntity
  8
BEM-1
 62
    10
440
 16777216
 48
0.5
370
    -2
100
AcDbLine
 10
4181.21075725051
 20
1555.991048576804
 30
0.0
 11
4190.374255309112
 21
1555.991048576804
 31
0.0
  0
LINE
  5
1BB
330
1B7
100
AcDbEntity
  8
BEM-1
 62
    10
440
 16777216
 48
0.5
370
    -2
100
AcDbLine
 10
4189.374255309112
 20
1604.991048576804
 30
0.0
 11
4189.374255309112
 21
1554.991048576804
 31
0.0
  0
INSERT
  5
1BC
330
1B7
100
AcDbEntity
  8
BEM-1
 62
    10
440
 16777216
 48
0.5
370
    -2
100
AcDbBlockReference
  2
_OBLIQUE
 10
4189.374255309112
 20
1603.991048576804
 30
0.0
 41
2.0
 42
2.0
 43
2.0
 50
90.0
  0
INSERT
  5
1BD
330
1B7
100
AcDbEntity
  8
BEM-1
 62
    10
440
 16777216
 48
0.5
370
    -2
100
AcDbBlockReference
  2
_OBLIQUE
 10
4189.374255309112
 20
1555.991048576804
 30
0.0
 41
2.0
 42
2.0
 43
2.0
 50
270.0
  0
MTEXT
  5
1BE
330
1B7
100
AcDbEntity
  8
BEM-1
 62
     7
440
 16777216
 48
0.5
100
AcDbMText
 10
4186.842536345946
 20
1579.991048576802
 30
0.0
 40
3.0
 41
0.0
 46
0.0
 71
     5
 72
     1
  1
\A1;48
  7
BEMASSUNG
 11
0.0000000000000001
 21
1.0
 31
0.0
 73
     1
 44
1.0
  0
POINT
  5
1BF
330
1B7
100
AcDbEntity
  8
DEFPOINTS
 62
     0
440
 16777216
 48
0.5
100
AcDbPoint
 10
4179.21075725051
 20
1603.991048576804
 30
0.0
  0
POINT
  5
1C2
330
1B7
100
AcDbEntity
  8
DEFPOINTS
 62
     0
440
 16777216
 48
0.5
100
AcDbPoint
 10
4179.21075725051
 20
1555.991048576804
 30
0.0
  0
POINT
  5
1C3
330
1B7
100
AcDbEntity
  8
DEFPOINTS
 62
     0
440
 16777216
 48
0.5
100
AcDbPoint
 10
4189.374255309112
 20
1555.991048576804
 30
0.0
  0
ENDBLK
  5
1C4
330
1B7
100
AcDbEntity
  8
0
 48
0.5
100
AcDbBlockEnd
  0
ENDSEC
  0
SECTION
  2
ENTITIES
  0
LWPOLYLINE
  5
76
102
{ACAD_REACTORS
330
117
330
11A
330
110
102
}
330
2
100
AcDbEntity
  8
SS_035
 62
     4
 48
0.5
100
AcDbPolyline
 90
        2
 70
     0
 43
0.0
 10
4133.160523439129
 20
1679.923532066971
 10
4103.821199168689
 20
1466.081084754644
  0
LWPOLYLINE
  5
7A
330
2
100
AcDbEntity
  8
SYMBOLE_1
440
 33554559
100
AcDbPolyline
 90
        2
 70
     0
 43
0.0
 10
4163.810757150508
 20
1560.571646176803
 10
4163.810757150508
 20
1560.991048576803
1001
AcDbBlockRepETag
1070
     1
1071
      484
1005
0
  0
LWPOLYLINE
  5
7F
330
2
100
AcDbEntity
  8
SYMBOLE_1
440
 33554559
100
AcDbPolyline
 90
        2
 70
     0
 43
0.0
 10
4165.810757240508
 20
1559.941048576803
 10
4163.810757150508
 20
1560.571646176803
1001
AcDbBlockRepETag
1070
     1
1071
      483
1005
0
  0
LWPOLYLINE
  5
80
330
2
100
AcDbEntity
  8
SYMBOLE_1
440
 33554559
100
AcDbPolyline
 90
        2
 70
     0
 43
0.0
 10
4163.810757150508
 20
1561.660450976803
 10
4163.810757150508
 20
1560.991048576803
1001
AcDbBlockRepETag
1070
     1
1071
      482
1005
0
  0
LWPOLYLINE
  5
81
330
2
100
AcDbEntity
  8
SYMBOLE_1
440
 33554559
100
AcDbPolyline
 90
        2
 70
     0
 43
0.0
 10
4165.810757240508
 20
1562.041048576803
 10
4163.810757150508
 20
1561.660450976803
1001
AcDbBlockRepETag
1070
     1
1071
      481
1005
0
  0
LWPOLYLINE
  5
82
330
2
100
AcDbEntity
  8
SYMBOLE_1
440
 33554559
100
AcDbPolyline
 90
        2
 70
     0
 43
0.0
 10
4162.706192590508
 20
1559.816048576803
 10
4162.706192590508
 20
1559.941048576803
1001
AcDbBlockRepETag
1070
     1
1071
      480
1005
0
  0
LWPOLYLINE
  5
83
330
2
100
AcDbEntity
  8
SYMBOLE_1
440
 33554559
100
AcDbPolyline
 90
        2
 70
     0
 43
0.0
 10
4165.810757240508
 20
1558.199914526803
 10
4162.706192590508
 20
1559.816048576803
1001
AcDbBlockRepETag
1070
     1
1071
      479
1005
0
  0
LWPOLYLINE
  5
84
330
2
100
AcDbEntity
  8
SYMBOLE_1
440
 33554559
100
AcDbPolyline
 90
        2
 70
     0
 43
0.0
 10
4165.810757240508
 20
1557.241048576803
 10
4163.810757150508
 20
1559.241048666803
1001
AcDbBlockRepETag
1070
     1
1071
      478
1005
0
  0
LWPOLYLINE
  5
85
330
2
100
AcDbEntity
  8
SYMBOLE_1
440
 33554559
100
AcDbPolyline
 90
        2
 70
     0
 43
0.0
 10
4165.810757240508
 20
1563.782182626803
 10
4162.706192590508
 20
1562.166048576803
1001
AcDbBlockRepETag
1070
     1
1071
      477
1005
0
  0
LWPOLYLINE
  5
86
330
2
100
AcDbEntity
  8
SYMBOLE_1
440
 33554559
100
AcDbPolyline
 90
        2
 70
     0
 43
0.0
 10
4146.494436400508
 20
1559.816048576803
 10
4148.461414730507
 20
1559.816048576803
1001
AcDbBlockRepETag
1070
     1
1071
      476
1005
0
  0
LWPOLYLINE
  5
87
330
2
100
AcDbEntity
  8
SYMBOLE_1
440
 33554559
100
AcDbPolyline
 90
        3
 70
     0
 43
0.0
 10
4144.098392820508
 20
1560.190035146803
 10
4145.125912460509
 20
1559.816048576803
 10
4146.061414730508
 20
1559.816048576803
1001
AcDbBlockRepETag
1070
     1
1071
      475
1005
0
  0
LWPOLYLINE
  5
88
330
2
100
AcDbEntity
  8
SYMBOLE_1
440
 33554559
100
AcDbPolyline
 90
        2
 70
     0
 43
0.0
 10
4144.902114240507
 20
1562.084592686803
 10
4142.724587020508
 20
1561.542037566803
1001
AcDbBlockRepETag
1070
     1
1071
      474
1005
0
  0
LWPOLYLINE
  5
89
330
2
100
AcDbEntity
  8
SYMBOLE_1
440
 33554559
100
AcDbPolyline
 90
        2
 70
     0
 43
0.0
 10
4147.137392000508
 20
1562.166048576803
 10
4145.341499910507
 20
1562.166048576803
1001
AcDbBlockRepETag
1070
     1
1071
      473
1005
0
  0
LWPOLYLINE
  5
8A
330
2
100
AcDbEntity
  8
SYMBOLE_1
440
 33554559
100
AcDbPolyline
 90
        2
 70
     0
 43
0.0
 10
4149.537392000508
 20
1562.166048576803
 10
4147.570413670508
 20
1562.166048576803
1001
AcDbBlockRepETag
1070
     1
1071
      472
1005
0
  0
LWPOLYLINE
  5
8B
330
2
100
AcDbEntity
  8
SYMBOLE_1
440
 33554559
100
AcDbPolyline
 90
        2
 70
     0
 43
0.0
 10
4146.258476480508
 20
1559.191048576803
 10
4146.061414730508
 20
1559.816048576803
1001
AcDbBlockRepETag
1070
     1
1071
      471
1005
0
  0
LWPOLYLINE
  5
8C
330
2
100
AcDbEntity
  8
SYMBOLE_1
440
 33554559
100
AcDbPolyline
 90
        2
 70
     0
 43
0.0
 10
4147.373351930507
 20
1562.791048576803
 10
4147.570413670508
 20
1562.166048576803
1001
AcDbBlockRepETag
1070
     1
1071
      470
1005
0
  0
LWPOLYLINE
  5
8D
330
2
100
AcDbEntity
  8
SYMBOLE_1
440
 33554559
100
AcDbPolyline
 90
        2
 70
     0
 43
0.0
 10
4149.773351930508
 20
1562.791048576803
 10
4149.970413670508
 20
1562.166048576803
1001
AcDbBlockRepETag
1070
     1
1071
      469
1005
0
  0
LWPOLYLINE
  5
8E
330
2
100
AcDbEntity
  8
SYMBOLE_1
440
 33554559
100
AcDbPolyline
 90
        2
 70
     0
 43
0.0
 10
4148.658476480508
 20
1559.191048576803
 10
4148.461414730507
 20
1559.816048576803
1001
AcDbBlockRepETag
1070
     1
1071
      468
1005
0
  0
LWPOLYLINE
  5
8F
330
2
100
AcDbEntity
  8
SYMBOLE_1
440
 33554559
100
AcDbPolyline
 90
        2
 70
     0
 43
0.0
 10
4149.970413670508
 20
1562.166048576803
 10
4148.658476480508
 20
1559.191048576803
1001
AcDbBlockRepETag
1070
     1
1071
      467
1005
0
  0
LWPOLYLINE
  5
90
330
2
100
AcDbEntity
  8
SYMBOLE_1
440
 33554559
100
AcDbPolyline
 90
        2
 70
     0
 43
0.0
 10
4148.461414730507
 20
1559.816048576803
 10
4149.773351930508
 20
1562.791048576803
1001
AcDbBlockRepETag
1070
     1
1071
      466
1005
0
  0
LWPOLYLINE
  5
91
330
2
100
AcDbEntity
  8
SYMBOLE_1
440
 33554559
100
AcDbPolyline
 90
        2
 70
     0
 43
0.0
 10
4147.570413670508
 20
1562.166048576803
 10
4146.258476480508
 20
1559.191048576803
1001
AcDbBlockRepETag
1070
     1
1071
      465
1005
0
  0
LWPOLYLINE
  5
92
330
2
100
AcDbEntity
  8
SYMBOLE_1
440
 33554559
100
AcDbPolyline
 90
        2
 70
     0
 43
0.0
 10
4146.061414730508
 20
1559.816048576803
 10
4147.373351930507
 20
1562.791048576803
1001
AcDbBlockRepETag
1070
     1
1071
      464
1005
0
  0
LWPOLYLINE
  5
93
330
2
100
AcDbEntity
  8
SYMBOLE_1
440
 33554559
100
AcDbPolyline
 90
        2
 70
     0
 43
0.0
 10
4142.091972390508
 20
1560.670312486803
 10
4143.621462030508
 20
1560.363623766803
1001
AcDbBlockRepETag
1070
     1
1071
      463
1005
0
  0
LWPOLYLINE
  5
94
330
2
100
AcDbEntity
  8
SYMBOLE_1
440
 33554559
100
AcDbPolyline
 90
        3
 70
     0
 43
0.0
 10
4141.603388810508
 20
1560.848142376803
 10
4141.210757250508
 20
1560.991048576803
 10
4141.885254680508
 20
1561.236545576803
1001
AcDbBlockRepETag
1070
     1
1071
      462
1005
0
  0
LWPOLYLINE
  5
95
330
2
100
AcDbEntity
  8
SYMBOLE_1
440
 33554559
100
AcDbPolyline
 90
        2
 70
     0
 43
0.0
 10
4141.651397190508
 20
1560.313212316803
 10
4142.676578640508
 20
1562.076967626803
1001
AcDbBlockRepETag
1070
     1
1071
      461
1005
0
  0
LWPOLYLINE
  5
96
330
2
100
AcDbEntity
  8
SYMBOLE_1
440
 33554559
100
AcDbPolyline
 90
        3
 70
     0
 43
0.0
 10
4142.676578640508
 20
1562.076967626803
 10
4142.724587020508
 20
1561.542037566803
 10
4141.651397190508
 20
1560.313212316803
1001
AcDbBlockRepETag
1070
     1
1071
      460
1005
0
  0
LWPOLYLINE
  5
97
330
2
100
AcDbEntity
  8
SYMBOLE_1
440
 33554559
100
AcDbPolyline
 90
        3
 70
     0
 43
0.0
 10
4141.651397190508
 20
1560.313212316803
 10
4141.603388810508
 20
1560.848142376803
 10
4142.676578640508
 20
1562.076967626803
1001
AcDbBlockRepETag
1070
     1
1071
      459
1005
0
  0
LWPOLYLINE
  5
98
330
2
100
AcDbEntity
  8
SYMBOLE_1
440
 33554559
100
AcDbPolyline
 90
        3
 70
     0
 43
0.0
 10
4143.751254950507
 20
1559.588011886803
 10
4143.621462030508
 20
1560.363623766803
 10
4145.253231840508
 20
1562.693517786803
1001
AcDbBlockRepETag
1070
     1
1071
      458
1005
0
  0
LWPOLYLINE
  5
99
330
2
100
AcDbEntity
  8
SYMBOLE_1
440
 33554559
100
AcDbPolyline
 90
        2
 70
     0
 43
0.0
 10
4143.751254950507
 20
1559.588011886803
 10
4145.253231840508
 20
1562.693517786803
1001
AcDbBlockRepETag
1070
     1
1071
      457
1005
0
  0
LWPOLYLINE
  5
9A
330
2
100
AcDbEntity
  8
SYMBOLE_1
440
 33554559
100
AcDbPolyline
 90
        2
 70
     0
 43
0.0
 10
4144.098392820508
 20
1560.190035146803
 10
4143.751254950507
 20
1559.588011886803
1001
AcDbBlockRepETag
1070
     1
1071
      456
1005
0
  0
LWPOLYLINE
  5
9B
330
2
100
AcDbEntity
  8
SYMBOLE_1
440
 33554559
100
AcDbPolyline
 90
        2
 70
     0
 43
0.0
 10
4145.253231840508
 20
1562.693517786803
 10
4145.341499910507
 20
1562.166048576803
1001
AcDbBlockRepETag
1070
     1
1071
      455
1005
0
  0
LWPOLYLINE
  5
9C
330
2
100
AcDbEntity
  8
SYMBOLE_1
440
 33554559
100
AcDbPolyline
 90
        2
 70
     0
 43
0.0
 10
4144.098392820508
 20
1560.190035146803
 10
4145.341499910507
 20
1562.166048576803
1001
AcDbBlockRepETag
1070
     1
1071
      454
1005
0
  0
LWPOLYLINE
  5
9D
330
2
100
AcDbEntity
  8
SYMBOLE_1
440
 33554559
100
AcDbPolyline
 90
        2
 70
     0
 43
0.0
 10
4147.373351930507
 20
1562.791048576803
 10
4146.258476480508
 20
1559.191048576803
1001
AcDbBlockRepETag
1070
     1
1071
      453
1005
0
  0
LWPOLYLINE
  5
9E
330
2
100
AcDbEntity
  8
SYMBOLE_1
440
 33554559
100
AcDbPolyline
 90
        2
 70
     0
 43
0.0
 10
4149.773351930508
 20
1562.791048576803
 10
4148.658476480508
 20
1559.191048576803
1001
AcDbBlockRepETag
1070
     1
1071
      452
1005
0
  0
LWPOLYLINE
  5
9F
330
2
100
AcDbEntity
  8
SYMBOLE_1
440
 33554559
100
AcDbPolyline
 90
        2
 70
     0
 43
0.0
 10
4150.822002390508
 20
1559.941048576803
 10
4150.818431520509
 20
1559.941048576803
1001
AcDbBlockRepETag
1070
     1
1071
      451
1005
0
  0
LWPOLYLINE
  5
A0
330
2
100
AcDbEntity
  8
SYMBOLE_1
440
 33554559
100
AcDbPolyline
 90
        2
 70
     0
 43
0.0
 10
4153.222002390508
 20
1559.941048576803
 10
4151.361017420508
 20
1559.941048576803
1001
AcDbBlockRepETag
1070
     1
1071
      450
1005
0
  0
LWPOLYLINE
  5
A1
330
2
100
AcDbEntity
  8
SYMBOLE_1
440
 33554559
100
AcDbPolyline
 90
        2
 70
     0
 43
0.0
 10
4155.622002390508
 20
1559.941048576803
 10
4153.761017420508
 20
1559.941048576803
1001
AcDbBlockRepETag
1070
     1
1071
      449
1005
0
  0
LWPOLYLINE
  5
A2
330
2
100
AcDbEntity
  8
SYMBOLE_1
440
 33554559
100
AcDbPolyline
 90
        2
 70
     0
 43
0.0
 10
4158.022002390509
 20
1559.941048576803
 10
4156.161017420509
 20
1559.941048576803
1001
AcDbBlockRepETag
1070
     1
1071
      448
1005
0
  0
LWPOLYLINE
  5
A3
330
2
100
AcDbEntity
  8
SYMBOLE_1
440
 33554559
100
AcDbPolyline
 90
        2
 70
     0
 43
0.0
 10
4162.706192590508
 20
1559.941048576803
 10
4158.561017422299
 20
1559.941048576803
1001
AcDbBlockRepETag
1070
     1
1071
      447
1005
0
  0
LWPOLYLINE
  5
A4
330
2
100
AcDbEntity
  8
SYMBOLE_1
440
 33554559
100
AcDbPolyline
 90
        2
 70
     0
 43
0.0
 10
4159.609826020508
 20
1562.041048576803
 10
4162.706192590508
 20
1562.041048576803
1001
AcDbBlockRepETag
1070
     1
1071
      446
1005
0
  0
LWPOLYLINE
  5
A5
330
2
100
AcDbEntity
  8
SYMBOLE_1
440
 33554559
100
AcDbPolyline
 90
        2
 70
     0
 43
0.0
 10
4157.209826020508
 20
1562.041048576803
 10
4159.070810980508
 20
1562.041048576803
1001
AcDbBlockRepETag
1070
     1
1071
      445
1005
0
  0
LWPOLYLINE
  5
A6
330
2
100
AcDbEntity
  8
SYMBOLE_1
440
 33554559
100
AcDbPolyline
 90
        2
 70
     0
 43
0.0
 10
4154.809826020508
 20
1562.041048576803
 10
4156.670810980508
 20
1562.041048576803
1001
AcDbBlockRepETag
1070
     1
1071
      444
1005
0
  0
LWPOLYLINE
  5
A7
330
2
100
AcDbEntity
  8
SYMBOLE_1
440
 33554559
100
AcDbPolyline
 90
        2
 70
     0
 43
0.0
 10
4152.409826020508
 20
1562.041048576803
 10
4154.270810980508
 20
1562.041048576803
1001
AcDbBlockRepETag
1070
     1
1071
      443
1005
0
  0
LWPOLYLINE
  5
A8
330
2
100
AcDbEntity
  8
SYMBOLE_1
440
 33554559
100
AcDbPolyline
 90
        2
 70
     0
 43
0.0
 10
4150.818431520509
 20
1562.041048576803
 10
4151.870810980508
 20
1562.041048576803
1001
AcDbBlockRepETag
1070
     1
1071
      442
1005
0
  0
LWPOLYLINE
  5
A9
330
2
100
AcDbEntity
  8
SYMBOLE_1
440
 33554559
100
AcDbPolyline
 90
        2
 70
     0
 43
0.0
 10
4152.173351930509
 20
1562.791048576803
 10
4151.058476480508
 20
1559.191048576803
1001
AcDbBlockRepETag
1070
     1
1071
      441
1005
0
  0
LWPOLYLINE
  5
AA
330
2
100
AcDbEntity
  8
SYMBOLE_1
440
 33554559
100
AcDbPolyline
 90
        3
 70
     0
 43
0.0
 10
4151.058476480508
 20
1559.191048576803
 10
4150.822002390508
 20
1559.941048576803
 10
4152.173351930509
 20
1562.791048576803
1001
AcDbBlockRepETag
1070
     1
1071
      440
1005
0
  0
LWPOLYLINE
  5
AB
330
2
100
AcDbEntity
  8
SYMBOLE_1
440
 33554559
100
AcDbPolyline
 90
        3
 70
     0
 43
0.0
 10
4152.173351930509
 20
1562.791048576803
 10
4152.409826020508
 20
1562.041048576803
 10
4151.058476480508
 20
1559.191048576803
1001
AcDbBlockRepETag
1070
     1
1071
      439
1005
0
  0
LWPOLYLINE
  5
AC
330
2
100
AcDbEntity
  8
SYMBOLE_1
440
 33554559
100
AcDbPolyline
 90
        2
 70
     0
 43
0.0
 10
4154.573351930508
 20
1562.791048576803
 10
4153.458476480508
 20
1559.191048576803
1001
AcDbBlockRepETag
1070
     1
1071
      438
1005
0
  0
LWPOLYLINE
  5
AD
330
2
100
AcDbEntity
  8
SYMBOLE_1
440
 33554559
100
AcDbPolyline
 90
        3
 70
     0
 43
0.0
 10
4153.458476480508
 20
1559.191048576803
 10
4153.222002390508
 20
1559.941048576803
 10
4154.573351930508
 20
1562.791048576803
1001
AcDbBlockRepETag
1070
     1
1071
      437
1005
0
  0
LWPOLYLINE
  5
AE
330
2
100
AcDbEntity
  8
SYMBOLE_1
440
 33554559
100
AcDbPolyline
 90
        3
 70
     0
 43
0.0
 10
4154.573351930508
 20
1562.791048576803
 10
4154.809826020508
 20
1562.041048576803
 10
4153.458476480508
 20
1559.191048576803
1001
AcDbBlockRepETag
1070
     1
1071
      436
1005
0
  0
LWPOLYLINE
  5
AF
330
2
100
AcDbEntity
  8
SYMBOLE_1
440
 33554559
100
AcDbPolyline
 90
        2
 70
     0
 43
0.0
 10
4156.973351930508
 20
1562.791048576803
 10
4155.858476480508
 20
1559.191048576803
1001
AcDbBlockRepETag
1070
     1
1071
      435
1005
0
  0
LWPOLYLINE
  5
B0
330
2
100
AcDbEntity
  8
SYMBOLE_1
440
 33554559
100
AcDbPolyline
 90
        3
 70
     0
 43
0.0
 10
4155.858476480508
 20
1559.191048576803
 10
4155.622002390508
 20
1559.941048576803
 10
4156.973351930508
 20
1562.791048576803
1001
AcDbBlockRepETag
1070
     1
1071
      434
1005
0
  0
LWPOLYLINE
  5
B1
330
2
100
AcDbEntity
  8
SYMBOLE_1
440
 33554559
100
AcDbPolyline
 90
        3
 70
     0
 43
0.0
 10
4156.973351930508
 20
1562.791048576803
 10
4157.209826020508
 20
1562.041048576803
 10
4155.858476480508
 20
1559.191048576803
1001
AcDbBlockRepETag
1070
     1
1071
      433
1005
0
  0
LWPOLYLINE
  5
B2
330
2
100
AcDbEntity
  8
SYMBOLE_1
440
 33554559
100
AcDbPolyline
 90
        2
 70
     0
 43
0.0
 10
4159.373351930508
 20
1562.791048576803
 10
4158.258476480509
 20
1559.191048576803
1001
AcDbBlockRepETag
1070
     1
1071
      432
1005
0
  0
LWPOLYLINE
  5
B3
330
2
100
AcDbEntity
  8
SYMBOLE_1
440
 33554559
100
AcDbPolyline
 90
        3
 70
     0
 43
0.0
 10
4158.258476480509
 20
1559.191048576803
 10
4158.022002390509
 20
1559.941048576803
 10
4159.373351930508
 20
1562.791048576803
1001
AcDbBlockRepETag
1070
     1
1071
      431
1005
0
  0
LWPOLYLINE
  5
B4
330
2
100
AcDbEntity
  8
SYMBOLE_1
440
 33554559
100
AcDbPolyline
 90
        3
 70
     0
 43
0.0
 10
4159.373351930508
 20
1562.791048576803
 10
4159.609826020508
 20
1562.041048576803
 10
4158.258476480509
 20
1559.191048576803
1001
AcDbBlockRepETag
1070
     1
1071
      430
1005
0
  0
LWPOLYLINE
  5
B5
330
2
100
AcDbEntity
  8
SYMBOLE_1
440
 33554559
100
AcDbPolyline
 90
        2
 70
     0
 43
0.0
 10
4165.810757240508
 20
1564.741048576803
 10
4163.810757150508
 20
1562.741048486803
1001
AcDbBlockRepETag
1070
     1
1071
      429
1005
0
  0
LWPOLYLINE
  5
B6
330
2
100
AcDbEntity
  8
SYMBOLE_1
440
 33554559
100
AcDbPolyline
 90
        2
 70
     0
 43
0.0
 10
4162.706192590508
 20
1562.166048576803
 10
4162.706192590508
 20
1562.041048576803
1001
AcDbBlockRepETag
1070
     1
1071
      428
1005
0
  0
LWPOLYLINE
  5
B7
330
2
100
AcDbEntity
  8
SYMBOLE_1
440
 33554559
100
AcDbPolyline
 90
        2
 70
     0
 43
0.0
 10
4148.894436400508
 20
1559.816048576803
 10
4150.861414730509
 20
1559.816048576803
1001
AcDbBlockRepETag
1070
     1
1071
      427
1005
0
  0
LWPOLYLINE
  5
B8
330
2
100
AcDbEntity
  8
SYMBOLE_1
440
 33554559
100
AcDbPolyline
 90
        2
 70
     0
 43
0.0
 10
4150.861414730509
 20
1562.166048576803
 10
4149.970413670508
 20
1562.166048576803
1001
AcDbBlockRepETag
1070
     1
1071
      426
1005
0
  0
LWPOLYLINE
  5
B9
330
2
100
AcDbEntity
  8
SYMBOLE_1
440
 33554559
100
AcDbPolyline
 90
        2
 70
     0
 43
0.0
 10
4150.861414730509
 20
1559.816048576803
 42
-0.2233508859574445
 10
4150.861414730509
 20
1560.991048576803
1001
AcDbBlockRepETag
1070
     1
1071
      425
1005
0
  0
LWPOLYLINE
  5
BA
330
2
100
AcDbEntity
  8
SYMBOLE_1
440
 33554559
100
AcDbPolyline
 90
        2
 70
     0
 43
0.0
 10
4150.861414730509
 20
1560.991048576803
 42
-0.2233508859574445
 10
4150.861414730509
 20
1562.166048576803
1001
AcDbBlockRepETag
1070
     1
1071
      424
1005
0
  0
LWPOLYLINE
  5
BB
330
2
100
AcDbEntity
  8
SYMBOLE_1
440
 33554559
100
AcDbPolyline
 90
        5
 70
     0
 43
0.0
 10
4165.810757240508
 20
1564.741048576803
 10
4166.210757250508
 20
1564.741048576803
 10
4166.210757250508
 20
1557.241048576803
 10
4165.810757240508
 20
1557.241048576803
 10
4165.810757240508
 20
1564.741048576803
1001
AcDbBlockRepETag
1070
     1
1071
      423
1005
0
  0
LINE
  5
BC
330
2
100
AcDbEntity
  8
SYMBOLE_1
440
 33554559
100
AcDbLine
 10
4141.210757250508
 20
1560.991048576803
 30
0.0
 11
4166.210757250508
 21
1560.991048576803
 31
0.0
1001
AcDbBlockRepETag
1070
     1
1071
      422
1005
0
  0
LWPOLYLINE
  5
BD
330
2
100
AcDbEntity
  8
SYMBOLE_1
440
 33554559
100
AcDbPolyline
 90
        2
 70
     0
 43
0.0
 10
4163.810757150508
 20
1599.410450976803
 10
4163.810757150508
 20
1598.991048576803
1001
AcDbBlockRepETag
1070
     1
1071
      484
1005
0
  0
LWPOLYLINE
  5
BE
330
2
100
AcDbEntity
  8
SYMBOLE_1
440
 33554559
100
AcDbPolyline
 90
        2
 70
     0
 43
0.0
 10
4165.810757240508
 20
1600.041048576803
 10
4163.810757150508
 20
1599.410450976803
1001
AcDbBlockRepETag
1070
     1
1071
      483
1005
0
  0
LWPOLYLINE
  5
BF
330
2
100
AcDbEntity
  8
SYMBOLE_1
440
 33554559
100
AcDbPolyline
 90
        2
 70
     0
 43
0.0
 10
4163.810757150508
 20
1598.321646176803
 10
4163.810757150508
 20
1598.991048576803
1001
AcDbBlockRepETag
1070
     1
1071
      482
1005
0
  0
LWPOLYLINE
  5
C0
330
2
100
AcDbEntity
  8
SYMBOLE_1
440
 33554559
100
AcDbPolyline
 90
        2
 70
     0
 43
0.0
 10
4165.810757240508
 20
1597.941048576803
 10
4163.810757150508
 20
1598.321646176803
1001
AcDbBlockRepETag
1070
     1
1071
      481
1005
0
  0
LWPOLYLINE
  5
C1
330
2
100
AcDbEntity
  8
SYMBOLE_1
440
 33554559
100
AcDbPolyline
 90
        2
 70
     0
 43
0.0
 10
4162.706192590508
 20
1600.166048576803
 10
4162.706192590508
 20
1600.041048576803
1001
AcDbBlockRepETag
1070
     1
1071
      480
1005
0
  0
LWPOLYLINE
  5
C2
330
2
100
AcDbEntity
  8
SYMBOLE_1
440
 33554559
100
AcDbPolyline
 90
        2
 70
     0
 43
0.0
 10
4165.810757240508
 20
1601.782182626803
 10
4162.706192590508
 20
1600.166048576803
1001
AcDbBlockRepETag
1070
     1
1071
      479
1005
0
  0
LWPOLYLINE
  5
C3
330
2
100
AcDbEntity
  8
SYMBOLE_1
440
 33554559
100
AcDbPolyline
 90
        2
 70
     0
 43
0.0
 10
4165.810757240508
 20
1602.741048576803
 10
4163.810757150508
 20
1600.741048486803
1001
AcDbBlockRepETag
1070
     1
1071
      478
1005
0
  0
LWPOLYLINE
  5
C4
330
2
100
AcDbEntity
  8
SYMBOLE_1
440
 33554559
100
AcDbPolyline
 90
        2
 70
     0
 43
0.0
 10
4165.810757240508
 20
1596.199914526803
 10
4162.706192590508
 20
1597.816048576803
1001
AcDbBlockRepETag
1070
     1
1071
      477
1005
0
  0
LWPOLYLINE
  5
C5
330
2
100
AcDbEntity
  8
SYMBOLE_1
440
 33554559
100
AcDbPolyline
 90
        2
 70
     0
 43
0.0
 10
4146.494436400508
 20
1600.166048576803
 10
4148.461414730507
 20
1600.166048576803
1001
AcDbBlockRepETag
1070
     1
1071
      476
1005
0
  0
LWPOLYLINE
  5
C6
330
2
100
AcDbEntity
  8
SYMBOLE_1
440
 33554559
100
AcDbPolyline
 90
        3
 70
     0
 43
0.0
 10
4144.098392820508
 20
1599.792062006803
 10
4145.125912460509
 20
1600.166048576803
 10
4146.061414730508
 20
1600.166048576803
1001
AcDbBlockRepETag
1070
     1
1071
      475
1005
0
  0
LWPOLYLINE
  5
C7
330
2
100
AcDbEntity
  8
SYMBOLE_1
440
 33554559
100
AcDbPolyline
 90
        2
 70
     0
 43
0.0
 10
4144.902114240507
 20
1597.897504466803
 10
4142.724587020508
 20
1598.440059586803
1001
AcDbBlockRepETag
1070
     1
1071
      474
1005
0
  0
LWPOLYLINE
  5
C8
330
2
100
AcDbEntity
  8
SYMBOLE_1
440
 33554559
100
AcDbPolyline
 90
        2
 70
     0
 43
0.0
 10
4147.137392000508
 20
1597.816048576803
 10
4145.341499910507
 20
1597.816048576803
1001
AcDbBlockRepETag
1070
     1
1071
      473
1005
0
  0
LWPOLYLINE
  5
C9
330
2
100
AcDbEntity
  8
SYMBOLE_1
440
 33554559
100
AcDbPolyline
 90
        2
 70
     0
 43
0.0
 10
4149.537392000508
 20
1597.816048576803
 10
4147.570413670508
 20
1597.816048576803
1001
AcDbBlockRepETag
1070
     1
1071
      472
1005
0
  0
LWPOLYLINE
  5
CA
330
2
100
AcDbEntity
  8
SYMBOLE_1
440
 33554559
100
AcDbPolyline
 90
        2
 70
     0
 43
0.0
 10
4146.258476480508
 20
1600.791048576803
 10
4146.061414730508
 20
1600.166048576803
1001
AcDbBlockRepETag
1070
     1
1071
      471
1005
0
  0
LWPOLYLINE
  5
CB
330
2
100
AcDbEntity
  8
SYMBOLE_1
440
 33554559
100
AcDbPolyline
 90
        2
 70
     0
 43
0.0
 10
4147.373351930507
 20
1597.191048576803
 10
4147.570413670508
 20
1597.816048576803
1001
AcDbBlockRepETag
1070
     1
1071
      470
1005
0
  0
LWPOLYLINE
  5
CC
330
2
100
AcDbEntity
  8
SYMBOLE_1
440
 33554559
100
AcDbPolyline
 90
        2
 70
     0
 43
0.0
 10
4149.773351930508
 20
1597.191048576803
 10
4149.970413670508
 20
1597.816048576803
1001
AcDbBlockRepETag
1070
     1
1071
      469
1005
0
  0
LWPOLYLINE
  5
CD
330
2
100
AcDbEntity
  8
SYMBOLE_1
440
 33554559
100
AcDbPolyline
 90
        2
 70
     0
 43
0.0
 10
4148.658476480508
 20
1600.791048576803
 10
4148.461414730507
 20
1600.166048576803
1001
AcDbBlockRepETag
1070
     1
1071
      468
1005
0
  0
LWPOLYLINE
  5
CE
330
2
100
AcDbEntity
  8
SYMBOLE_1
440
 33554559
100
AcDbPolyline
 90
        2
 70
     0
 43
0.0
 10
4149.970413670508
 20
1597.816048576803
 10
4148.658476480508
 20
1600.791048576803
1001
AcDbBlockRepETag
1070
     1
1071
      467
1005
0
  0
LWPOLYLINE
  5
CF
330
2
100
AcDbEntity
  8
SYMBOLE_1
440
 33554559
100
AcDbPolyline
 90
        2
 70
     0
 43
0.0
 10
4148.461414730507
 20
1600.166048576803
 10
4149.773351930508
 20
1597.191048576803
1001
AcDbBlockRepETag
1070
     1
1071
      466
1005
0
  0
LWPOLYLINE
  5
D0
330
2
100
AcDbEntity
  8
SYMBOLE_1
440
 33554559
100
AcDbPolyline
 90
        2
 70
     0
 43
0.0
 10
4147.570413670508
 20
1597.816048576803
 10
4146.258476480508
 20
1600.791048576803
1001
AcDbBlockRepETag
1070
     1
1071
      465
1005
0
  0
LWPOLYLINE
  5
D1
330
2
100
AcDbEntity
  8
SYMBOLE_1
440
 33554559
100
AcDbPolyline
 90
        2
 70
     0
 43
0.0
 10
4146.061414730508
 20
1600.166048576803
 10
4147.373351930507
 20
1597.191048576803
1001
AcDbBlockRepETag
1070
     1
1071
      464
1005
0
  0
LWPOLYLINE
  5
D2
330
2
100
AcDbEntity
  8
SYMBOLE_1
440
 33554559
100
AcDbPolyline
 90
        2
 70
     0
 43
0.0
 10
4142.091972390508
 20
1599.311784666803
 10
4143.621462030508
 20
1599.618473386803
1001
AcDbBlockRepETag
1070
     1
1071
      463
1005
0
  0
LWPOLYLINE
  5
D3
330
2
100
AcDbEntity
  8
SYMBOLE_1
440
 33554559
100
AcDbPolyline
 90
        3
 70
     0
 43
0.0
 10
4141.603388810508
 20
1599.133954776803
 10
4141.210757250508
 20
1598.991048576803
 10
4141.885254680508
 20
1598.745551576803
1001
AcDbBlockRepETag
1070
     1
1071
      462
1005
0
  0
LWPOLYLINE
  5
D4
330
2
100
AcDbEntity
  8
SYMBOLE_1
440
 33554559
100
AcDbPolyline
 90
        2
 70
     0
 43
0.0
 10
4141.651397190508
 20
1599.668884836803
 10
4142.676578640508
 20
1597.905129526803
1001
AcDbBlockRepETag
1070
     1
1071
      461
1005
0
  0
LWPOLYLINE
  5
D5
330
2
100
AcDbEntity
  8
SYMBOLE_1
440
 33554559
100
AcDbPolyline
 90
        3
 70
     0
 43
0.0
 10
4142.676578640508
 20
1597.905129526803
 10
4142.724587020508
 20
1598.440059586803
 10
4141.651397190508
 20
1599.668884836803
1001
AcDbBlockRepETag
1070
     1
1071
      460
1005
0
  0
LWPOLYLINE
  5
D6
330
2
100
AcDbEntity
  8
SYMBOLE_1
440
 33554559
100
AcDbPolyline
 90
        3
 70
     0
 43
0.0
 10
4141.651397190508
 20
1599.668884836803
 10
4141.603388810508
 20
1599.133954776803
 10
4142.676578640508
 20
1597.905129526803
1001
AcDbBlockRepETag
1070
     1
1071
      459
1005
0
  0
LWPOLYLINE
  5
D7
330
2
100
AcDbEntity
  8
SYMBOLE_1
440
 33554559
100
AcDbPolyline
 90
        3
 70
     0
 43
0.0
 10
4143.751254950507
 20
1600.394085266803
 10
4143.621462030508
 20
1599.618473386803
 10
4145.253231840508
 20
1597.288579366803
1001
AcDbBlockRepETag
1070
     1
1071
      458
1005
0
  0
LWPOLYLINE
  5
D8
330
2
100
AcDbEntity
  8
SYMBOLE_1
440
 33554559
100
AcDbPolyline
 90
        2
 70
     0
 43
0.0
 10
4143.751254950507
 20
1600.394085266803
 10
4145.253231840508
 20
1597.288579366803
1001
AcDbBlockRepETag
1070
     1
1071
      457
1005
0
  0
LWPOLYLINE
  5
D9
330
2
100
AcDbEntity
  8
SYMBOLE_1
440
 33554559
100
AcDbPolyline
 90
        2
 70
     0
 43
0.0
 10
4144.098392820508
 20
1599.792062006803
 10
4143.751254950507
 20
1600.394085266803
1001
AcDbBlockRepETag
1070
     1
1071
      456
1005
0
  0
LWPOLYLINE
  5
DA
330
2
100
AcDbEntity
  8
SYMBOLE_1
440
 33554559
100
AcDbPolyline
 90
        2
 70
     0
 43
0.0
 10
4145.253231840508
 20
1597.288579366803
 10
4145.341499910507
 20
1597.816048576803
1001
AcDbBlockRepETag
1070
     1
1071
      455
1005
0
  0
LWPOLYLINE
  5
DB
330
2
100
AcDbEntity
  8
SYMBOLE_1
440
 33554559
100
AcDbPolyline
 90
        2
 70
     0
 43
0.0
 10
4144.098392820508
 20
1599.792062006803
 10
4145.341499910507
 20
1597.816048576803
1001
AcDbBlockRepETag
1070
     1
1071
      454
1005
0
  0
LWPOLYLINE
  5
DC
330
2
100
AcDbEntity
  8
SYMBOLE_1
440
 33554559
100
AcDbPolyline
 90
        2
 70
     0
 43
0.0
 10
4147.373351930507
 20
1597.191048576803
 10
4146.258476480508
 20
1600.791048576803
1001
AcDbBlockRepETag
1070
     1
1071
      453
1005
0
  0
LWPOLYLINE
  5
DD
330
2
100
AcDbEntity
  8
SYMBOLE_1
440
 33554559
100
AcDbPolyline
 90
        2
 70
     0
 43
0.0
 10
4149.773351930508
 20
1597.191048576803
 10
4148.658476480508
 20
1600.791048576803
1001
AcDbBlockRepETag
1070
     1
1071
      452
1005
0
  0
LWPOLYLINE
  5
DE
330
2
100
AcDbEntity
  8
SYMBOLE_1
440
 33554559
100
AcDbPolyline
 90
        2
 70
     0
 43
0.0
 10
4150.822002390508
 20
1600.041048576803
 10
4150.818431520509
 20
1600.041048576803
1001
AcDbBlockRepETag
1070
     1
1071
      451
1005
0
  0
LWPOLYLINE
  5
DF
330
2
100
AcDbEntity
  8
SYMBOLE_1
440
 33554559
100
AcDbPolyline
 90
        2
 70
     0
 43
0.0
 10
4153.222002390508
 20
1600.041048576803
 10
4151.361017420508
 20
1600.041048576803
1001
AcDbBlockRepETag
1070
     1
1071
      450
1005
0
  0
LWPOLYLINE
  5
E0
330
2
100
AcDbEntity
  8
SYMBOLE_1
440
 33554559
100
AcDbPolyline
 90
        2
 70
     0
 43
0.0
 10
4155.622002390508
 20
1600.041048576803
 10
4153.761017420508
 20
1600.041048576803
1001
AcDbBlockRepETag
1070
     1
1071
      449
1005
0
  0
LWPOLYLINE
  5
E1
330
2
100
AcDbEntity
  8
SYMBOLE_1
440
 33554559
100
AcDbPolyline
 90
        2
 70
     0
 43
0.0
 10
4158.022002390509
 20
1600.041048576803
 10
4156.161017420509
 20
1600.041048576803
1001
AcDbBlockRepETag
1070
     1
1071
      448
1005
0
  0
LWPOLYLINE
  5
E2
330
2
100
AcDbEntity
  8
SYMBOLE_1
440
 33554559
100
AcDbPolyline
 90
        2
 70
     0
 43
0.0
 10
4162.706192590508
 20
1600.041048576803
 10
4158.561017422299
 20
1600.041048576803
1001
AcDbBlockRepETag
1070
     1
1071
      447
1005
0
  0
LWPOLYLINE
  5
E3
330
2
100
AcDbEntity
  8
SYMBOLE_1
440
 33554559
100
AcDbPolyline
 90
        2
 70
     0
 43
0.0
 10
4159.609826020508
 20
1597.941048576803
 10
4162.706192590508
 20
1597.941048576803
1001
AcDbBlockRepETag
1070
     1
1071
      446
1005
0
  0
LWPOLYLINE
  5
E4
330
2
100
AcDbEntity
  8
SYMBOLE_1
440
 33554559
100
AcDbPolyline
 90
        2
 70
     0
 43
0.0
 10
4157.209826020508
 20
1597.941048576803
 10
4159.070810980508
 20
1597.941048576803
1001
AcDbBlockRepETag
1070
     1
1071
      445
1005
0
  0
LWPOLYLINE
  5
E5
330
2
100
AcDbEntity
  8
SYMBOLE_1
440
 33554559
100
AcDbPolyline
 90
        2
 70
     0
 43
0.0
 10
4154.809826020508
 20
1597.941048576803
 10
4156.670810980508
 20
1597.941048576803
1001
AcDbBlockRepETag
1070
     1
1071
      444
1005
0
  0
LWPOLYLINE
  5
E6
330
2
100
AcDbEntity
  8
SYMBOLE_1
440
 33554559
100
AcDbPolyline
 90
        2
 70
     0
 43
0.0
 10
4152.409826020508
 20
1597.941048576803
 10
4154.270810980508
 20
1597.941048576803
1001
AcDbBlockRepETag
1070
     1
1071
      443
1005
0
  0
LWPOLYLINE
  5
E7
330
2
100
AcDbEntity
  8
SYMBOLE_1
440
 33554559
100
AcDbPolyline
 90
        2
 70
     0
 43
0.0
 10
4150.818431520509
 20
1597.941048576803
 10
4151.870810980508
 20
1597.941048576803
1001
AcDbBlockRepETag
1070
     1
1071
      442
1005
0
  0
LWPOLYLINE
  5
E8
330
2
100
AcDbEntity
  8
SYMBOLE_1
440
 33554559
100
AcDbPolyline
 90
        2
 70
     0
 43
0.0
 10
4152.173351930509
 20
1597.191048576803
 10
4151.058476480508
 20
1600.791048576803
1001
AcDbBlockRepETag
1070
     1
1071
      441
1005
0
  0
LWPOLYLINE
  5
E9
330
2
100
AcDbEntity
  8
SYMBOLE_1
440
 33554559
100
AcDbPolyline
 90
        3
 70
     0
 43
0.0
 10
4151.058476480508
 20
1600.791048576803
 10
4150.822002390508
 20
1600.041048576803
 10
4152.173351930509
 20
1597.191048576803
1001
AcDbBlockRepETag
1070
     1
1071
      440
1005
0
  0
LWPOLYLINE
  5
EA
330
2
100
AcDbEntity
  8
SYMBOLE_1
440
 33554559
100
AcDbPolyline
 90
        3
 70
     0
 43
0.0
 10
4152.173351930509
 20
1597.191048576803
 10
4152.409826020508
 20
1597.941048576803
 10
4151.058476480508
 20
1600.791048576803
1001
AcDbBlockRepETag
1070
     1
1071
      439
1005
0
  0
LWPOLYLINE
  5
EB
330
2
100
AcDbEntity
  8
SYMBOLE_1
440
 33554559
100
AcDbPolyline
 90
        2
 70
     0
 43
0.0
 10
4154.573351930508
 20
1597.191048576803
 10
4153.458476480508
 20
1600.791048576803
1001
AcDbBlockRepETag
1070
     1
1071
      438
1005
0
  0
LWPOLYLINE
  5
EC
330
2
100
AcDbEntity
  8
SYMBOLE_1
440
 33554559
100
AcDbPolyline
 90
        3
 70
     0
 43
0.0
 10
4153.458476480508
 20
1600.791048576803
 10
4153.222002390508
 20
1600.041048576803
 10
4154.573351930508
 20
1597.191048576803
1001
AcDbBlockRepETag
1070
     1
1071
      437
1005
0
  0
LWPOLYLINE
  5
ED
330
2
100
AcDbEntity
  8
SYMBOLE_1
440
 33554559
100
AcDbPolyline
 90
        3
 70
     0
 43
0.0
 10
4154.573351930508
 20
1597.191048576803
 10
4154.809826020508
 20
1597.941048576803
 10
4153.458476480508
 20
1600.791048576803
1001
AcDbBlockRepETag
1070
     1
1071
      436
1005
0
  0
LWPOLYLINE
  5
EE
330
2
100
AcDbEntity
  8
SYMBOLE_1
440
 33554559
100
AcDbPolyline
 90
        2
 70
     0
 43
0.0
 10
4156.973351930508
 20
1597.191048576803
 10
4155.858476480508
 20
1600.791048576803
1001
AcDbBlockRepETag
1070
     1
1071
      435
1005
0
  0
LWPOLYLINE
  5
EF
330
2
100
AcDbEntity
  8
SYMBOLE_1
440
 33554559
100
AcDbPolyline
 90
        3
 70
     0
 43
0.0
 10
4155.858476480508
 20
1600.791048576803
 10
4155.622002390508
 20
1600.041048576803
 10
4156.973351930508
 20
1597.191048576803
1001
AcDbBlockRepETag
1070
     1
1071
      434
1005
0
  0
LWPOLYLINE
  5
F0
330
2
100
AcDbEntity
  8
SYMBOLE_1
440
 33554559
100
AcDbPolyline
 90
        3
 70
     0
 43
0.0
 10
4156.973351930508
 20
1597.191048576803
 10
4157.209826020508
 20
1597.941048576803
 10
4155.858476480508
 20
1600.791048576803
1001
AcDbBlockRepETag
1070
     1
1071
      433
1005
0
  0
LWPOLYLINE
  5
F1
330
2
100
AcDbEntity
  8
SYMBOLE_1
440
 33554559
100
AcDbPolyline
 90
        2
 70
     0
 43
0.0
 10
4159.373351930508
 20
1597.191048576803
 10
4158.258476480509
 20
1600.791048576803
1001
AcDbBlockRepETag
1070
     1
1071
      432
1005
0
  0
LWPOLYLINE
  5
F2
330
2
100
AcDbEntity
  8
SYMBOLE_1
440
 33554559
100
AcDbPolyline
 90
        3
 70
     0
 43
0.0
 10
4158.258476480509
 20
1600.791048576803
 10
4158.022002390509
 20
1600.041048576803
 10
4159.373351930508
 20
1597.191048576803
1001
AcDbBlockRepETag
1070
     1
1071
      431
1005
0
  0
LWPOLYLINE
  5
F3
330
2
100
AcDbEntity
  8
SYMBOLE_1
440
 33554559
100
AcDbPolyline
 90
        3
 70
     0
 43
0.0
 10
4159.373351930508
 20
1597.191048576803
 10
4159.609826020508
 20
1597.941048576803
 10
4158.258476480509
 20
1600.791048576803
1001
AcDbBlockRepETag
1070
     1
1071
      430
1005
0
  0
LWPOLYLINE
  5
F4
330
2
100
AcDbEntity
  8
SYMBOLE_1
440
 33554559
100
AcDbPolyline
 90
        2
 70
     0
 43
0.0
 10
4165.810757240508
 20
1595.241048576803
 10
4163.810757150508
 20
1597.241048666803
1001
AcDbBlockRepETag
1070
     1
1071
      429
1005
0
  0
LWPOLYLINE
  5
F5
330
2
100
AcDbEntity
  8
SYMBOLE_1
440
 33554559
100
AcDbPolyline
 90
        2
 70
     0
 43
0.0
 10
4162.706192590508
 20
1597.816048576803
 10
4162.706192590508
 20
1597.941048576803
1001
AcDbBlockRepETag
1070
     1
1071
      428
1005
0
  0
LWPOLYLINE
  5
F6
330
2
100
AcDbEntity
  8
SYMBOLE_1
440
 33554559
100
AcDbPolyline
 90
        2
 70
     0
 43
0.0
 10
4148.894436400508
 20
1600.166048576803
 10
4150.861414730509
 20
1600.166048576803
1001
AcDbBlockRepETag
1070
     1
1071
      427
1005
0
  0
LWPOLYLINE
  5
F7
330
2
100
AcDbEntity
  8
SYMBOLE_1
440
 33554559
100
AcDbPolyline
 90
        2
 70
     0
 43
0.0
 10
4150.861414730509
 20
1597.816048576803
 10
4149.970413670508
 20
1597.816048576803
1001
AcDbBlockRepETag
1070
     1
1071
      426
1005
0
  0
LWPOLYLINE
  5
F8
330
2
100
AcDbEntity
  8
SYMBOLE_1
440
 33554559
100
AcDbPolyline
 90
        2
 70
     0
 43
0.0
 10
4150.861414730509
 20
1600.166048576803
 42
0.2233508859574445
 10
4150.861414730509
 20
1598.991048576803
1001
AcDbBlockRepETag
1070
     1
1071
      425
1005
0
  0
LWPOLYLINE
  5
F9
330
2
100
AcDbEntity
  8
SYMBOLE_1
440
 33554559
100
AcDbPolyline
 90
        2
 70
     0
 43
0.0
 10
4150.861414730509
 20
1598.991048576803
 42
0.2233508859574445
 10
4150.861414730509
 20
1597.816048576803
1001
AcDbBlockRepETag
1070
     1
1071
      424
1005
0
  0
LWPOLYLINE
  5
FA
330
2
100
AcDbEntity
  8
SYMBOLE_1
440
 33554559
100
AcDbPolyline
 90
        5
 70
     0
 43
0.0
 10
4165.810757240508
 20
1595.241048576803
 10
4166.210757250508
 20
1595.241048576803
 10
4166.210757250508
 20
1602.741048576803
 10
4165.810757240508
 20
1602.741048576803
 10
4165.810757240508
 20
1595.241048576803
1001
AcDbBlockRepETag
1070
     1
1071
      423
1005
0
  0
LINE
  5
FB
330
2
100
AcDbEntity
  8
SYMBOLE_1
440
 33554559
100
AcDbLine
 10
4141.210757250508
 20
1598.991048576803
 30
0.0
 11
4166.210757250508
 21
1598.991048576803
 31
0.0
1001
AcDbBlockRepETag
1070
     1
1071
      422
1005
0
  0
LWPOLYLINE
  5
FC
330
2
100
AcDbEntity
  8
SP_035
 62
     4
 48
0.5
100
AcDbPolyline
 90
        2
 70
     0
 43
0.0
 10
4169.609789565459
 20
1591.591048576803
 10
4169.609789565459
 20
1568.391048576803
  0
LWPOLYLINE
  5
101
330
2
100
AcDbEntity
  8
SS_025
 48
0.5
100
AcDbPolyline
 90
        4
 70
     1
 43
0.0
 10
4176.692074565275
 20
1576.991048576803
 10
4167.708182475237
 20
1576.991048576803
 10
4167.708182475237
 20
1582.991048576803
 10
4176.692074565275
 20
1582.991048576803
  0
LWPOLYLINE
  5
102
330
2
100
AcDbEntity
  8
SS_025
 48
0.5
100
AcDbPolyline
 90
        4
 70
     0
 43
0.0
 10
4174.71075725051
 20
1583.491048576803
 10
4161.21075725051
 20
1583.491048576803
 10
4161.21075725051
 20
1576.491048576803
 10
4174.71075725051
 20
1576.491048576803
  0
LWPOLYLINE
  5
103
330
2
100
AcDbEntity
  8
SP_035
 62
     4
 48
0.5
100
AcDbPolyline
 90
        2
 70
     0
 43
0.0
 10
4163.81172493556
 20
1591.591048576803
 10
4163.81172493556
 20
1568.391048576803
  0
LWPOLYLINE
  5
104
330
2
100
AcDbEntity
  8
SS_025
 48
0.5
100
AcDbPolyline
 90
        4
 70
     1
 43
0.0
 10
4156.729439935745
 20
1576.991048576803
 10
4165.713332025782
 20
1576.991048576803
 10
4165.713332025782
 20
1582.991048576803
 10
4156.729439935745
 20
1582.991048576803
  0
LWPOLYLINE
  5
105
330
2
100
AcDbEntity
  8
SS_025
 48
0.5
100
AcDbPolyline
 90
        4
 70
     0
 43
0.0
 10
4158.71075725051
 20
1583.491048576803
 10
4172.21075725051
 20
1583.491048576803
 10
4172.21075725051
 20
1576.491048576803
 10
4158.71075725051
 20
1576.491048576803
  0
LWPOLYLINE
  5
106
330
2
100
AcDbEntity
  8
SS_025
 48
0.5
100
AcDbPolyline
 90
        2
 70
     0
 43
0.0
 10
4175.210757250508
 20
1572.491048576803
 10
4179.210757250507
 20
1572.491048576803
  0
LWPOLYLINE
  5
107
330
2
100
AcDbEntity
  8
SS_025
 48
0.5
100
AcDbPolyline
 90
        2
 70
     0
 43
0.0
 10
4175.210757250508
 20
1587.491048576803
 10
4179.210757250507
 20
1587.491048576803
  0
LWPOLYLINE
  5
108
330
2
100
AcDbEntity
  8
SS_025
 48
0.5
100
AcDbPolyline
 90
        2
 70
     0
 43
0.0
 10
4154.210757250508
 20
1572.491048576803
 10
4158.210757250508
 20
1572.491048576803
  0
LWPOLYLINE
  5
109
330
2
100
AcDbEntity
  8
SS_025
 48
0.5
100
AcDbPolyline
 90
        2
 70
     0
 43
0.0
 10
4154.210757250508
 20
1587.491048576803
 10
4158.210757250508
 20
1587.491048576803
  0
LWPOLYLINE
  5
10A
102
{ACAD_REACTORS
330
110
102
}
330
2
100
AcDbEntity
  8
V1_010
440
 33554559
 48
0.5
100
AcDbPolyline
 90
        4
 70
     0
 43
0.0
 10
4130.425773608197
 20
1659.991048576803
 10
4179.210757250507
 20
1659.991048576803
 10
4179.210757250507
 20
1640.991048576803
 10
4127.818961124781
 20
1640.991048576803
  0
HATCH
  5
110
330
2
100
AcDbEntity
  8
SCHRAFFUR
440
 33554534
 48
0.5
100
AcDbHatch
 10
0.0
 20
0.0
 30
0.0
210
0.0
220
0.0
230
1.0
  2
_U
 70
     0
 71
     1
 91
        1
 92
        7
 72
     0
 73
     1
 93
        4
 10
4179.210757250507
 20
1640.991048576803
 10
4179.210757250507
 20
1659.991048576803
 10
4130.425773608197
 20
1659.991048576803
 10
4127.818961124781
 20
1640.991048576803
 97
        2
330
10A
330
76
 75
     1
 76
     0
 52
90.0
 41
10.0
 77
     0
 78
     1
 53
90.0
 43
348.4393059846475
 44
148.3328482979232
 45
-10.0
 46
0.0000000000000006
 79
     0
 47
0.0
 98
        1
 10
4154.160909408911
 20
1650.408645187349
1001
GradientColor1ACI
1070
     5
1001
GradientColor2ACI
1070
     2
1001
ACAD
1010
0.0
1020
0.0
1030
0.0
  0
LWPOLYLINE
  5
116
102
{ACAD_REACTORS
330
117
102
}
330
2
100
AcDbEntity
  8
V1_010
440
 33554559
 48
0.5
100
AcDbPolyline
 90
        4
 70
     0
 43
0.0
 10
4109.982875711923
 20
1510.991048576803
 10
4179.210757250507
 20
1510.991048576803
 10
4179.210757250507
 20
1491.991048576803
 10
4107.376063228506
 20
1491.991048576803
  0
HATCH
  5
117
330
2
100
AcDbEntity
  8
SCHRAFFUR
440
 33554534
 48
0.5
100
AcDbHatch
 10
0.0
 20
0.0
 30
0.0
210
0.0
220
0.0
230
1.0
  2
_U
 70
     0
 71
     1
 91
        1
 92
        7
 72
     0
 73
     1
 93
        4
 10
4179.210757250507
 20
1491.991048576803
 10
4179.210757250507
 20
1510.991048576803
 10
4109.982875711923
 20
1510.991048576803
 10
4107.376063228506
 20
1491.991048576803
 97
        2
330
116
330
76
 75
     1
 76
     0
 52
90.0
 41
10.0
 77
     0
 78
     1
 53
90.0
 43
348.439305984648
 44
-0.6671517020768079
 45
-10.0
 46
0.0000000000000006
 79
     0
 47
0.0
 98
        1
 10
4143.941098905962
 20
1501.432529113617
1001
GradientColor1ACI
1070
     5
1001
GradientColor2ACI
1070
     2
1001
ACAD
1010
0.0
1020
0.0
1030
0.0
  0
LWPOLYLINE
  5
118
330
2
100
AcDbEntity
  8
V1_010
440
 33554559
 48
0.5
100
AcDbPolyline
 90
        2
 70
     0
 43
0.0
 10
4138.210757250508
 20
1630.991048576803
 10
4126.446954554561
 20
1630.991048576803
  0
LWPOLYLINE
  5
119
102
{ACAD_REACTORS
330
11A
102
}
330
2
100
AcDbEntity
  8
V1_010
440
 33554559
 48
0.5
100
AcDbPolyline
 90
        4
 70
     0
 43
0.0
 10
4112.315286881297
 20
1527.991048576803
 10
4146.210757250508
 20
1527.991048576803
 10
4146.210757250508
 20
1533.991048576803
 10
4113.138490823429
 20
1533.991048576803
  0
HATCH
  5
11A
330
2
100
AcDbEntity
  8
SCHRAFFUR
440
 33554534
 48
0.5
100
AcDbHatch
 10
0.0
 20
0.0
 30
0.0
210
0.0
220
0.0
230
1.0
  2
_U
 70
     0
 71
     1
 91
        1
 92
        7
 72
     0
 73
     1
 93
        4
 10
4146.210757250508
 20
1527.991048576803
 10
4146.210757250508
 20
1533.991048576803
 10
4113.138490823429
 20
1533.991048576803
 10
4112.315286881297
 20
1527.991048576803
 97
        2
330
119
330
76
 75
     1
 76
     0
 52
90.0
 41
6.0
 77
     0
 78
     1
 53
90.0
 43
348.439305984648
 44
5.72640578433311
 45
-6.0
 46
0.0000000000000004
 79
     0
 47
0.0
 98
        1
 10
4129.467979778786
 20
1530.978756031444
1001
GradientColor1ACI
1070
     5
1001
GradientColor2ACI
1070
     2
1001
ACAD
1010
0.0
1020
0.0
1030
0.0
  0
LWPOLYLINE
  5
11B
102
{ACAD_REACTORS
330
11C
102
}
330
2
100
AcDbEntity
  8
V1_010
440
 33554559
 48
0.5
100
AcDbPolyline
 90
        8
 70
     1
 43
0.0
 10
4154.210757250508
 20
1635.991048576803
 10
4138.210757250508
 20
1635.991048576803
 10
4138.210757250508
 20
1533.991048576803
 10
4146.210757250508
 20
1533.991048576803
 10
4146.210757250508
 20
1527.991048576803
 10
4138.210757250508
 20
1527.991048576803
 10
4138.210757250508
 20
1515.991048576803
 10
4154.210757250508
 20
1515.991048576803
  0
HATCH
  5
11C
330
2
100
AcDbEntity
  8
SCHRAFFUR
440
 33554534
 48
0.5
100
AcDbHatch
 10
0.0
 20
0.0
 30
0.0
210
0.0
220
0.0
230
1.0
  2
_U
 70
     0
 71
     1
 91
        1
 92
        1
 93
        8
 72
     1
 10
4154.210757250508
 20
1635.991048576803
 11
4138.210757250508
 21
1635.991048576803
 72
     1
 10
4138.210757250508
 20
1635.991048576803
 11
4138.210757250508
 21
1533.991048576803
 72
     1
 10
4138.210757250508
 20
1533.991048576803
 11
4146.210757250508
 21
1533.991048576803
 72
     1
 10
4146.210757250508
 20
1533.991048576803
 11
4146.210757250508
 21
1527.991048576803
 72
     1
 10
4146.210757250508
 20
1527.991048576803
 11
4138.210757250508
 21
1527.991048576803
 72
     1
 10
4138.210757250508
 20
1527.991048576803
 11
4138.210757250508
 21
1515.991048576803
 72
     1
 10
4138.210757250508
 20
1515.991048576803
 11
4154.210757250508
 21
1515.991048576803
 72
     1
 10
4154.210757250508
 20
1515.991048576803
 11
4154.210757250508
 21
1635.991048576803
 97
        1
330
11B
 75
     1
 76
     0
 52
0.0
 41
6.0
 77
     0
 78
     1
 53
0.0
 43
348.439305984648
 44
5.72640578433311
 45
0.0
 46
6.0
 79
     0
 98
        1
 10
348.439305984648
 20
5.72640578433311
1001
GradientColor1ACI
1070
     5
1001
GradientColor2ACI
1070
     2
1001
ACAD
1010
0.0
1020
0.0
1030
0.0
  0
LWPOLYLINE
  5
11D
330
2
100
AcDbEntity
  8
SYMBOLE_1
440
 33554559
100
AcDbPolyline
 90
        2
 70
     0
 43
0.0
 10
4169.610757350509
 20
1561.410450976803
 10
4169.610757350509
 20
1560.991048576803
1001
AcDbBlockRepETag
1070
     1
1071
      421
1005
0
  0
LWPOLYLINE
  5
11E
330
2
100
AcDbEntity
  8
SYMBOLE_1
440
 33554559
100
AcDbPolyline
 90
        2
 70
     0
 43
0.0
 10
4167.610757260509
 20
1562.041048576803
 10
4169.610757350509
 20
1561.410450976803
1001
AcDbBlockRepETag
1070
     1
1071
      420
1005
0
  0
LWPOLYLINE
  5
11F
330
2
100
AcDbEntity
  8
SYMBOLE_1
440
 33554559
100
AcDbPolyline
 90
        2
 70
     0
 43
0.0
 10
4169.610757350509
 20
1560.321646176803
 10
4169.610757350509
 20
1560.991048576803
1001
AcDbBlockRepETag
1070
     1
1071
      419
1005
0
  0
LWPOLYLINE
  5
120
330
2
100
AcDbEntity
  8
SYMBOLE_1
440
 33554559
100
AcDbPolyline
 90
        2
 70
     0
 43
0.0
 10
4167.610757260509
 20
1559.941048576803
 10
4169.610757350509
 20
1560.321646176803
1001
AcDbBlockRepETag
1070
     1
1071
      418
1005
0
  0
LWPOLYLINE
  5
121
330
2
100
AcDbEntity
  8
SYMBOLE_1
440
 33554559
100
AcDbPolyline
 90
        2
 70
     0
 43
0.0
 10
4170.715321910509
 20
1562.166048576803
 10
4170.715321910509
 20
1562.041048576803
1001
AcDbBlockRepETag
1070
     1
1071
      417
1005
0
  0
LWPOLYLINE
  5
122
330
2
100
AcDbEntity
  8
SYMBOLE_1
440
 33554559
100
AcDbPolyline
 90
        2
 70
     0
 43
0.0
 10
4167.610757260509
 20
1563.782182626803
 10
4170.715321910509
 20
1562.166048576803
1001
AcDbBlockRepETag
1070
     1
1071
      416
1005
0
  0
LWPOLYLINE
  5
123
330
2
100
AcDbEntity
  8
SYMBOLE_1
440
 33554559
100
AcDbPolyline
 90
        2
 70
     0
 43
0.0
 10
4167.610757260509
 20
1564.741048576803
 10
4169.610757350509
 20
1562.741048486803
1001
AcDbBlockRepETag
1070
     1
1071
      415
1005
0
  0
LWPOLYLINE
  5
124
330
2
100
AcDbEntity
  8
SYMBOLE_1
440
 33554559
100
AcDbPolyline
 90
        2
 70
     0
 43
0.0
 10
4167.610757260509
 20
1558.199914526803
 10
4170.715321910509
 20
1559.816048576803
1001
AcDbBlockRepETag
1070
     1
1071
      414
1005
0
  0
LWPOLYLINE
  5
125
330
2
100
AcDbEntity
  8
SYMBOLE_1
440
 33554559
100
AcDbPolyline
 90
        2
 70
     0
 43
0.0
 10
4191.927078100508
 20
1562.166048576803
 10
4189.960099770508
 20
1562.166048576803
1001
AcDbBlockRepETag
1070
     1
1071
      413
1005
0
  0
LWPOLYLINE
  5
126
330
2
100
AcDbEntity
  8
SYMBOLE_1
440
 33554559
100
AcDbPolyline
 90
        3
 70
     0
 43
0.0
 10
4194.323121680509
 20
1561.792062006803
 10
4193.295602040508
 20
1562.166048576803
 10
4192.360099770509
 20
1562.166048576803
1001
AcDbBlockRepETag
1070
     1
1071
      412
1005
0
  0
LWPOLYLINE
  5
127
330
2
100
AcDbEntity
  8
SYMBOLE_1
440
 33554559
100
AcDbPolyline
 90
        2
 70
     0
 43
0.0
 10
4193.519400260508
 20
1559.897504466803
 10
4195.696927480509
 20
1560.440059586803
1001
AcDbBlockRepETag
1070
     1
1071
      411
1005
0
  0
LWPOLYLINE
  5
128
330
2
100
AcDbEntity
  8
SYMBOLE_1
440
 33554559
100
AcDbPolyline
 90
        2
 70
     0
 43
0.0
 10
4191.284122500508
 20
1559.816048576803
 10
4193.080014590509
 20
1559.816048576803
1001
AcDbBlockRepETag
1070
     1
1071
      410
1005
0
  0
LWPOLYLINE
  5
129
330
2
100
AcDbEntity
  8
SYMBOLE_1
440
 33554559
100
AcDbPolyline
 90
        2
 70
     0
 43
0.0
 10
4188.884122500508
 20
1559.816048576803
 10
4190.851100830508
 20
1559.816048576803
1001
AcDbBlockRepETag
1070
     1
1071
      409
1005
0
  0
LWPOLYLINE
  5
12A
330
2
100
AcDbEntity
  8
SYMBOLE_1
440
 33554559
100
AcDbPolyline
 90
        2
 70
     0
 43
0.0
 10
4192.163038020508
 20
1562.791048576803
 10
4192.360099770509
 20
1562.166048576803
1001
AcDbBlockRepETag
1070
     1
1071
      408
1005
0
  0
LWPOLYLINE
  5
12B
330
2
100
AcDbEntity
  8
SYMBOLE_1
440
 33554559
100
AcDbPolyline
 90
        2
 70
     0
 43
0.0
 10
4191.048162570509
 20
1559.191048576803
 10
4190.851100830508
 20
1559.816048576803
1001
AcDbBlockRepETag
1070
     1
1071
      407
1005
0
  0
LWPOLYLINE
  5
12C
330
2
100
AcDbEntity
  8
SYMBOLE_1
440
 33554559
100
AcDbPolyline
 90
        2
 70
     0
 43
0.0
 10
4188.648162570507
 20
1559.191048576803
 10
4188.451100830508
 20
1559.816048576803
1001
AcDbBlockRepETag
1070
     1
1071
      406
1005
0
  0
LWPOLYLINE
  5
12D
330
2
100
AcDbEntity
  8
SYMBOLE_1
440
 33554559
100
AcDbPolyline
 90
        2
 70
     0
 43
0.0
 10
4189.763038020508
 20
1562.791048576803
 10
4189.960099770508
 20
1562.166048576803
1001
AcDbBlockRepETag
1070
     1
1071
      405
1005
0
  0
LWPOLYLINE
  5
12E
330
2
100
AcDbEntity
  8
SYMBOLE_1
440
 33554559
100
AcDbPolyline
 90
        2
 70
     0
 43
0.0
 10
4188.451100830508
 20
1559.816048576803
 10
4189.763038020508
 20
1562.791048576803
1001
AcDbBlockRepETag
1070
     1
1071
      404
1005
0
  0
LWPOLYLINE
  5
12F
330
2
100
AcDbEntity
  8
SYMBOLE_1
440
 33554559
100
AcDbPolyline
 90
        2
 70
     0
 43
0.0
 10
4189.960099770508
 20
1562.166048576803
 10
4188.648162570507
 20
1559.191048576803
1001
AcDbBlockRepETag
1070
     1
1071
      403
1005
0
  0
LWPOLYLINE
  5
130
330
2
100
AcDbEntity
  8
SYMBOLE_1
440
 33554559
100
AcDbPolyline
 90
        2
 70
     0
 43
0.0
 10
4190.851100830508
 20
1559.816048576803
 10
4192.163038020508
 20
1562.791048576803
1001
AcDbBlockRepETag
1070
     1
1071
      402
1005
0
  0
LWPOLYLINE
  5
131
330
2
100
AcDbEntity
  8
SYMBOLE_1
440
 33554559
100
AcDbPolyline
 90
        2
 70
     0
 43
0.0
 10
4192.360099770509
 20
1562.166048576803
 10
4191.048162570509
 20
1559.191048576803
1001
AcDbBlockRepETag
1070
     1
1071
      401
1005
0
  0
LWPOLYLINE
  5
132
330
2
100
AcDbEntity
  8
SYMBOLE_1
440
 33554559
100
AcDbPolyline
 90
        2
 70
     0
 43
0.0
 10
4196.329542110508
 20
1561.311784666803
 10
4194.800052470508
 20
1561.618473386803
1001
AcDbBlockRepETag
1070
     1
1071
      400
1005
0
  0
LWPOLYLINE
  5
133
330
2
100
AcDbEntity
  8
SYMBOLE_1
440
 33554559
100
AcDbPolyline
 90
        3
 70
     0
 43
0.0
 10
4196.818125690508
 20
1561.133954776803
 10
4197.210757250508
 20
1560.991048576803
 10
4196.536259820508
 20
1560.745551576803
1001
AcDbBlockRepETag
1070
     1
1071
      399
1005
0
  0
LWPOLYLINE
  5
134
330
2
100
AcDbEntity
  8
SYMBOLE_1
440
 33554559
100
AcDbPolyline
 90
        2
 70
     0
 43
0.0
 10
4196.770117310509
 20
1561.668884836803
 10
4195.744935860508
 20
1559.905129526803
1001
AcDbBlockRepETag
1070
     1
1071
      398
1005
0
  0
LWPOLYLINE
  5
135
330
2
100
AcDbEntity
  8
SYMBOLE_1
440
 33554559
100
AcDbPolyline
 90
        3
 70
     0
 43
0.0
 10
4195.744935860508
 20
1559.905129526803
 10
4195.696927480509
 20
1560.440059586803
 10
4196.770117310509
 20
1561.668884836803
1001
AcDbBlockRepETag
1070
     1
1071
      397
1005
0
  0
LWPOLYLINE
  5
136
330
2
100
AcDbEntity
  8
SYMBOLE_1
440
 33554559
100
AcDbPolyline
 90
        3
 70
     0
 43
0.0
 10
4196.770117310509
 20
1561.668884836803
 10
4196.818125690508
 20
1561.133954776803
 10
4195.744935860508
 20
1559.905129526803
1001
AcDbBlockRepETag
1070
     1
1071
      396
1005
0
  0
LWPOLYLINE
  5
137
330
2
100
AcDbEntity
  8
SYMBOLE_1
440
 33554559
100
AcDbPolyline
 90
        3
 70
     0
 43
0.0
 10
4194.670259550508
 20
1562.394085266803
 10
4194.800052470508
 20
1561.618473386803
 10
4193.168282660508
 20
1559.288579366803
1001
AcDbBlockRepETag
1070
     1
1071
      395
1005
0
  0
LWPOLYLINE
  5
138
330
2
100
AcDbEntity
  8
SYMBOLE_1
440
 33554559
100
AcDbPolyline
 90
        2
 70
     0
 43
0.0
 10
4194.670259550508
 20
1562.394085266803
 10
4193.168282660508
 20
1559.288579366803
1001
AcDbBlockRepETag
1070
     1
1071
      394
1005
0
  0
LWPOLYLINE
  5
139
330
2
100
AcDbEntity
  8
SYMBOLE_1
440
 33554559
100
AcDbPolyline
 90
        2
 70
     0
 43
0.0
 10
4194.323121680509
 20
1561.792062006803
 10
4194.670259550508
 20
1562.394085266803
1001
AcDbBlockRepETag
1070
     1
1071
      393
1005
0
  0
LWPOLYLINE
  5
13A
330
2
100
AcDbEntity
  8
SYMBOLE_1
440
 33554559
100
AcDbPolyline
 90
        2
 70
     0
 43
0.0
 10
4193.168282660508
 20
1559.288579366803
 10
4193.080014590509
 20
1559.816048576803
1001
AcDbBlockRepETag
1070
     1
1071
      392
1005
0
  0
LWPOLYLINE
  5
13B
330
2
100
AcDbEntity
  8
SYMBOLE_1
440
 33554559
100
AcDbPolyline
 90
        2
 70
     0
 43
0.0
 10
4194.323121680509
 20
1561.792062006803
 10
4193.080014590509
 20
1559.816048576803
1001
AcDbBlockRepETag
1070
     1
1071
      391
1005
0
  0
LWPOLYLINE
  5
13C
330
2
100
AcDbEntity
  8
SYMBOLE_1
440
 33554559
100
AcDbPolyline
 90
        2
 70
     0
 43
0.0
 10
4191.048162570509
 20
1559.191048576803
 10
4192.163038020508
 20
1562.791048576803
1001
AcDbBlockRepETag
1070
     1
1071
      390
1005
0
  0
LWPOLYLINE
  5
13D
330
2
100
AcDbEntity
  8
SYMBOLE_1
440
 33554559
100
AcDbPolyline
 90
        2
 70
     0
 43
0.0
 10
4188.648162570507
 20
1559.191048576803
 10
4189.763038020508
 20
1562.791048576803
1001
AcDbBlockRepETag
1070
     1
1071
      389
1005
0
  0
LWPOLYLINE
  5
13E
330
2
100
AcDbEntity
  8
SYMBOLE_1
440
 33554559
100
AcDbPolyline
 90
        2
 70
     0
 43
0.0
 10
4187.599512110508
 20
1562.041048576803
 10
4187.603082980507
 20
1562.041048576803
1001
AcDbBlockRepETag
1070
     1
1071
      388
1005
0
  0
LWPOLYLINE
  5
13F
330
2
100
AcDbEntity
  8
SYMBOLE_1
440
 33554559
100
AcDbPolyline
 90
        2
 70
     0
 43
0.0
 10
4185.199512110508
 20
1562.041048576803
 10
4187.060497080508
 20
1562.041048576803
1001
AcDbBlockRepETag
1070
     1
1071
      387
1005
0
  0
LWPOLYLINE
  5
140
330
2
100
AcDbEntity
  8
SYMBOLE_1
440
 33554559
100
AcDbPolyline
 90
        2
 70
     0
 43
0.0
 10
4182.799512110508
 20
1562.041048576803
 10
4184.660497080508
 20
1562.041048576803
1001
AcDbBlockRepETag
1070
     1
1071
      386
1005
0
  0
LWPOLYLINE
  5
141
330
2
100
AcDbEntity
  8
SYMBOLE_1
440
 33554559
100
AcDbPolyline
 90
        2
 70
     0
 43
0.0
 10
4180.399512110508
 20
1562.041048576803
 10
4182.260497080508
 20
1562.041048576803
1001
AcDbBlockRepETag
1070
     1
1071
      385
1005
0
  0
LWPOLYLINE
  5
142
330
2
100
AcDbEntity
  8
SYMBOLE_1
440
 33554559
100
AcDbPolyline
 90
        2
 70
     0
 43
0.0
 10
4177.999512110509
 20
1562.041048576803
 10
4179.860497080507
 20
1562.041048576803
1001
AcDbBlockRepETag
1070
     1
1071
      384
1005
0
  0
LWPOLYLINE
  5
143
330
2
100
AcDbEntity
  8
SYMBOLE_1
440
 33554559
100
AcDbPolyline
 90
        2
 70
     0
 43
0.0
 10
4175.599512110507
 20
1562.041048576803
 10
4177.460497080509
 20
1562.041048576803
1001
AcDbBlockRepETag
1070
     1
1071
      383
1005
0
  0
LWPOLYLINE
  5
144
330
2
100
AcDbEntity
  8
SYMBOLE_1
440
 33554559
100
AcDbPolyline
 90
        2
 70
     0
 43
0.0
 10
4170.715321910509
 20
1562.041048576803
 10
4175.060497080509
 20
1562.041048576803
1001
AcDbBlockRepETag
1070
     1
1071
      382
1005
0
  0
LWPOLYLINE
  5
145
330
2
100
AcDbEntity
  8
SYMBOLE_1
440
 33554559
100
AcDbPolyline
 90
        2
 70
     0
 43
0.0
 10
4174.011688480508
 20
1559.941048576803
 10
4170.715321910509
 20
1559.941048576803
1001
AcDbBlockRepETag
1070
     1
1071
      381
1005
0
  0
LWPOLYLINE
  5
146
330
2
100
AcDbEntity
  8
SYMBOLE_1
440
 33554559
100
AcDbPolyline
 90
        2
 70
     0
 43
0.0
 10
4176.411688480508
 20
1559.941048576803
 10
4174.550703520508
 20
1559.941048576803
1001
AcDbBlockRepETag
1070
     1
1071
      380
1005
0
  0
LWPOLYLINE
  5
147
330
2
100
AcDbEntity
  8
SYMBOLE_1
440
 33554559
100
AcDbPolyline
 90
        2
 70
     0
 43
0.0
 10
4178.811688480508
 20
1559.941048576803
 10
4176.950703520508
 20
1559.941048576803
1001
AcDbBlockRepETag
1070
     1
1071
      379
1005
0
  0
LWPOLYLINE
  5
148
330
2
100
AcDbEntity
  8
SYMBOLE_1
440
 33554559
100
AcDbPolyline
 90
        2
 70
     0
 43
0.0
 10
4181.211688480508
 20
1559.941048576803
 10
4179.350703520508
 20
1559.941048576803
1001
AcDbBlockRepETag
1070
     1
1071
      378
1005
0
  0
LWPOLYLINE
  5
149
330
2
100
AcDbEntity
  8
SYMBOLE_1
440
 33554559
100
AcDbPolyline
 90
        2
 70
     0
 43
0.0
 10
4183.611688480509
 20
1559.941048576803
 10
4181.750703520508
 20
1559.941048576803
1001
AcDbBlockRepETag
1070
     1
1071
      377
1005
0
  0
LWPOLYLINE
  5
14A
330
2
100
AcDbEntity
  8
SYMBOLE_1
440
 33554559
100
AcDbPolyline
 90
        2
 70
     0
 43
0.0
 10
4186.011688480508
 20
1559.941048576803
 10
4184.150703520509
 20
1559.941048576803
1001
AcDbBlockRepETag
1070
     1
1071
      376
1005
0
  0
LWPOLYLINE
  5
14B
330
2
100
AcDbEntity
  8
SYMBOLE_1
440
 33554559
100
AcDbPolyline
 90
        2
 70
     0
 43
0.0
 10
4187.603082980507
 20
1559.941048576803
 10
4186.550703520508
 20
1559.941048576803
1001
AcDbBlockRepETag
1070
     1
1071
      375
1005
0
  0
LWPOLYLINE
  5
14C
330
2
100
AcDbEntity
  8
SYMBOLE_1
440
 33554559
100
AcDbPolyline
 90
        2
 70
     0
 43
0.0
 10
4186.248162570508
 20
1559.191048576803
 10
4187.363038020508
 20
1562.791048576803
1001
AcDbBlockRepETag
1070
     1
1071
      374
1005
0
  0
LWPOLYLINE
  5
14D
330
2
100
AcDbEntity
  8
SYMBOLE_1
440
 33554559
100
AcDbPolyline
 90
        3
 70
     0
 43
0.0
 10
4187.363038020508
 20
1562.791048576803
 10
4187.599512110508
 20
1562.041048576803
 10
4186.248162570508
 20
1559.191048576803
1001
AcDbBlockRepETag
1070
     1
1071
      373
1005
0
  0
LWPOLYLINE
  5
14E
330
2
100
AcDbEntity
  8
SYMBOLE_1
440
 33554559
100
AcDbPolyline
 90
        3
 70
     0
 43
0.0
 10
4186.248162570508
 20
1559.191048576803
 10
4186.011688480508
 20
1559.941048576803
 10
4187.363038020508
 20
1562.791048576803
1001
AcDbBlockRepETag
1070
     1
1071
      372
1005
0
  0
LWPOLYLINE
  5
14F
330
2
100
AcDbEntity
  8
SYMBOLE_1
440
 33554559
100
AcDbPolyline
 90
        2
 70
     0
 43
0.0
 10
4183.848162570508
 20
1559.191048576803
 10
4184.963038020508
 20
1562.791048576803
1001
AcDbBlockRepETag
1070
     1
1071
      371
1005
0
  0
LWPOLYLINE
  5
150
330
2
100
AcDbEntity
  8
SYMBOLE_1
440
 33554559
100
AcDbPolyline
 90
        3
 70
     0
 43
0.0
 10
4184.963038020508
 20
1562.791048576803
 10
4185.199512110508
 20
1562.041048576803
 10
4183.848162570508
 20
1559.191048576803
1001
AcDbBlockRepETag
1070
     1
1071
      370
1005
0
  0
LWPOLYLINE
  5
151
330
2
100
AcDbEntity
  8
SYMBOLE_1
440
 33554559
100
AcDbPolyline
 90
        3
 70
     0
 43
0.0
 10
4183.848162570508
 20
1559.191048576803
 10
4183.611688480509
 20
1559.941048576803
 10
4184.963038020508
 20
1562.791048576803
1001
AcDbBlockRepETag
1070
     1
1071
      369
1005
0
  0
LWPOLYLINE
  5
152
330
2
100
AcDbEntity
  8
SYMBOLE_1
440
 33554559
100
AcDbPolyline
 90
        2
 70
     0
 43
0.0
 10
4181.448162570508
 20
1559.191048576803
 10
4182.563038020508
 20
1562.791048576803
1001
AcDbBlockRepETag
1070
     1
1071
      368
1005
0
  0
LWPOLYLINE
  5
153
330
2
100
AcDbEntity
  8
SYMBOLE_1
440
 33554559
100
AcDbPolyline
 90
        3
 70
     0
 43
0.0
 10
4182.563038020508
 20
1562.791048576803
 10
4182.799512110508
 20
1562.041048576803
 10
4181.448162570508
 20
1559.191048576803
1001
AcDbBlockRepETag
1070
     1
1071
      367
1005
0
  0
LWPOLYLINE
  5
154
330
2
100
AcDbEntity
  8
SYMBOLE_1
440
 33554559
100
AcDbPolyline
 90
        3
 70
     0
 43
0.0
 10
4181.448162570508
 20
1559.191048576803
 10
4181.211688480508
 20
1559.941048576803
 10
4182.563038020508
 20
1562.791048576803
1001
AcDbBlockRepETag
1070
     1
1071
      366
1005
0
  0
LWPOLYLINE
  5
155
330
2
100
AcDbEntity
  8
SYMBOLE_1
440
 33554559
100
AcDbPolyline
 90
        2
 70
     0
 43
0.0
 10
4179.048162570508
 20
1559.191048576803
 10
4180.163038020508
 20
1562.791048576803
1001
AcDbBlockRepETag
1070
     1
1071
      365
1005
0
  0
LWPOLYLINE
  5
156
330
2
100
AcDbEntity
  8
SYMBOLE_1
440
 33554559
100
AcDbPolyline
 90
        3
 70
     0
 43
0.0
 10
4180.163038020508
 20
1562.791048576803
 10
4180.399512110508
 20
1562.041048576803
 10
4179.048162570508
 20
1559.191048576803
1001
AcDbBlockRepETag
1070
     1
1071
      364
1005
0
  0
LWPOLYLINE
  5
157
330
2
100
AcDbEntity
  8
SYMBOLE_1
440
 33554559
100
AcDbPolyline
 90
        3
 70
     0
 43
0.0
 10
4179.048162570508
 20
1559.191048576803
 10
4178.811688480508
 20
1559.941048576803
 10
4180.163038020508
 20
1562.791048576803
1001
AcDbBlockRepETag
1070
     1
1071
      363
1005
0
  0
LWPOLYLINE
  5
158
330
2
100
AcDbEntity
  8
SYMBOLE_1
440
 33554559
100
AcDbPolyline
 90
        2
 70
     0
 43
0.0
 10
4176.648162570508
 20
1559.191048576803
 10
4177.763038020508
 20
1562.791048576803
1001
AcDbBlockRepETag
1070
     1
1071
      362
1005
0
  0
LWPOLYLINE
  5
159
330
2
100
AcDbEntity
  8
SYMBOLE_1
440
 33554559
100
AcDbPolyline
 90
        3
 70
     0
 43
0.0
 10
4177.763038020508
 20
1562.791048576803
 10
4177.999512110509
 20
1562.041048576803
 10
4176.648162570508
 20
1559.191048576803
1001
AcDbBlockRepETag
1070
     1
1071
      361
1005
0
  0
LWPOLYLINE
  5
15A
330
2
100
AcDbEntity
  8
SYMBOLE_1
440
 33554559
100
AcDbPolyline
 90
        3
 70
     0
 43
0.0
 10
4176.648162570508
 20
1559.191048576803
 10
4176.411688480508
 20
1559.941048576803
 10
4177.763038020508
 20
1562.791048576803
1001
AcDbBlockRepETag
1070
     1
1071
      360
1005
0
  0
LWPOLYLINE
  5
15B
330
2
100
AcDbEntity
  8
SYMBOLE_1
440
 33554559
100
AcDbPolyline
 90
        2
 70
     0
 43
0.0
 10
4174.248162570507
 20
1559.191048576803
 10
4175.363038020509
 20
1562.791048576803
1001
AcDbBlockRepETag
1070
     1
1071
      359
1005
0
  0
LWPOLYLINE
  5
15C
330
2
100
AcDbEntity
  8
SYMBOLE_1
440
 33554559
100
AcDbPolyline
 90
        3
 70
     0
 43
0.0
 10
4175.363038020509
 20
1562.791048576803
 10
4175.599512110507
 20
1562.041048576803
 10
4174.248162570507
 20
1559.191048576803
1001
AcDbBlockRepETag
1070
     1
1071
      358
1005
0
  0
LWPOLYLINE
  5
15D
330
2
100
AcDbEntity
  8
SYMBOLE_1
440
 33554559
100
AcDbPolyline
 90
        3
 70
     0
 43
0.0
 10
4174.248162570507
 20
1559.191048576803
 10
4174.011688480508
 20
1559.941048576803
 10
4175.363038020509
 20
1562.791048576803
1001
AcDbBlockRepETag
1070
     1
1071
      357
1005
0
  0
LWPOLYLINE
  5
15E
330
2
100
AcDbEntity
  8
SYMBOLE_1
440
 33554559
100
AcDbPolyline
 90
        2
 70
     0
 43
0.0
 10
4167.610757260509
 20
1557.241048576803
 10
4169.610757350509
 20
1559.241048666803
1001
AcDbBlockRepETag
1070
     1
1071
      356
1005
0
  0
LWPOLYLINE
  5
15F
330
2
100
AcDbEntity
  8
SYMBOLE_1
440
 33554559
100
AcDbPolyline
 90
        2
 70
     0
 43
0.0
 10
4170.715321910509
 20
1559.816048576803
 10
4170.715321910509
 20
1559.941048576803
1001
AcDbBlockRepETag
1070
     1
1071
      355
1005
0
  0
LWPOLYLINE
  5
160
330
2
100
AcDbEntity
  8
SYMBOLE_1
440
 33554559
100
AcDbPolyline
 90
        2
 70
     0
 43
0.0
 10
4189.527078100508
 20
1562.166048576803
 10
4187.560099770507
 20
1562.166048576803
1001
AcDbBlockRepETag
1070
     1
1071
      354
1005
0
  0
LWPOLYLINE
  5
161
330
2
100
AcDbEntity
  8
SYMBOLE_1
440
 33554559
100
AcDbPolyline
 90
        2
 70
     0
 43
0.0
 10
4187.560099770507
 20
1559.816048576803
 10
4188.451100830508
 20
1559.816048576803
1001
AcDbBlockRepETag
1070
     1
1071
      353
1005
0
  0
LWPOLYLINE
  5
162
330
2
100
AcDbEntity
  8
SYMBOLE_1
440
 33554559
100
AcDbPolyline
 90
        2
 70
     0
 43
0.0
 10
4187.560099770507
 20
1562.166048576803
 42
-0.2233508859574445
 10
4187.560099770507
 20
1560.991048576803
1001
AcDbBlockRepETag
1070
     1
1071
      352
1005
0
  0
LWPOLYLINE
  5
163
330
2
100
AcDbEntity
  8
SYMBOLE_1
440
 33554559
100
AcDbPolyline
 90
        2
 70
     0
 43
0.0
 10
4187.560099770507
 20
1560.991048576803
 42
-0.2233508859574445
 10
4187.560099770507
 20
1559.816048576803
1001
AcDbBlockRepETag
1070
     1
1071
      351
1005
0
  0
LWPOLYLINE
  5
164
330
2
100
AcDbEntity
  8
SYMBOLE_1
440
 33554559
100
AcDbPolyline
 90
        5
 70
     0
 43
0.0
 10
4167.610757260509
 20
1557.241048576803
 10
4167.210757250508
 20
1557.241048576803
 10
4167.210757250508
 20
1564.741048576803
 10
4167.610757260509
 20
1564.741048576803
 10
4167.610757260509
 20
1557.241048576803
1001
AcDbBlockRepETag
1070
     1
1071
      350
1005
0
  0
LINE
  5
165
330
2
100
AcDbEntity
  8
SYMBOLE_1
  6
ACAD_ISO10W100
440
 33554559
 48
0.5
100
AcDbLine
 10
4197.210757250508
 20
1560.991048576803
 30
0.0
 11
4167.210757250508
 21
1560.991048576803
 31
0.0
1001
AcDbBlockRepETag
1070
     1
1071
      349
1005
0
  0
LWPOLYLINE
  5
166
102
{ACAD_REACTORS
330
167
102
}
330
2
100
AcDbEntity
  8
V1_010
440
 33554559
 48
0.5
100
AcDbPolyline
 90
        4
 70
     1
 43
0.0
 10
4179.210757250507
 20
1659.991048576803
 10
4198.210757250506
 20
1659.991048576803
 10
4198.210757250508
 20
1491.991048576803
 10
4179.210757250507
 20
1491.991048576803
  0
HATCH
  5
167
330
2
100
AcDbEntity
  8
SCHRAFFUR
440
 33554534
 48
0.5
100
AcDbHatch
 10
0.0
 20
0.0
 30
0.0
210
0.0
220
0.0
230
1.0
  2
_U
 70
     0
 71
     1
 91
        1
 92
        1
 93
        4
 72
     1
 10
4179.210757250507
 20
1659.991048576803
 11
4198.210757250506
 21
1659.991048576803
 72
     1
 10
4198.210757250506
 20
1659.991048576803
 11
4198.210757250508
 21
1491.991048576803
 72
     1
 10
4198.210757250508
 20
1491.991048576803
 11
4179.210757250507
 21
1491.991048576803
 72
     1
 10
4179.210757250507
 20
1491.991048576803
 11
4179.210757250507
 21
1659.991048576803
 97
        1
330
166
 75
     1
 76
     0
 52
0.0
 41
10.0
 77
     0
 78
     1
 53
0.0
 43
348.439305984648
 44
0.0
 45
0.0
 46
10.0
 79
     0
 98
        1
 10
348.439305984648
 20
0.0
1001
GradientColor1ACI
1070
     5
1001
GradientColor2ACI
1070
     2
1001
ACAD
1010
0.0
1020
0.0
1030
0.0
  0
LWPOLYLINE
  5
168
330
2
100
AcDbEntity
  8
SYMBOLE_1
440
 33554559
100
AcDbPolyline
 90
        2
 70
     0
 43
0.0
 10
4169.610757350509
 20
1598.571646176803
 10
4169.610757350509
 20
1598.991048576803
1001
AcDbBlockRepETag
1070
     1
1071
      421
1005
0
  0
LWPOLYLINE
  5
169
330
2
100
AcDbEntity
  8
SYMBOLE_1
440
 33554559
100
AcDbPolyline
 90
        2
 70
     0
 43
0.0
 10
4167.610757260509
 20
1597.941048576803
 10
4169.610757350509
 20
1598.571646176803
1001
AcDbBlockRepETag
1070
     1
1071
      420
1005
0
  0
LWPOLYLINE
  5
16A
330
2
100
AcDbEntity
  8
SYMBOLE_1
440
 33554559
100
AcDbPolyline
 90
        2
 70
     0
 43
0.0
 10
4169.610757350509
 20
1599.660450976803
 10
4169.610757350509
 20
1598.991048576803
1001
AcDbBlockRepETag
1070
     1
1071
      419
1005
0
  0
LWPOLYLINE
  5
16B
330
2
100
AcDbEntity
  8
SYMBOLE_1
440
 33554559
100
AcDbPolyline
 90
        2
 70
     0
 43
0.0
 10
4167.610757260509
 20
1600.041048576803
 10
4169.610757350509
 20
1599.660450976803
1001
AcDbBlockRepETag
1070
     1
1071
      418
1005
0
  0
LWPOLYLINE
  5
16C
330
2
100
AcDbEntity
  8
SYMBOLE_1
440
 33554559
100
AcDbPolyline
 90
        2
 70
     0
 43
0.0
 10
4170.715321910509
 20
1597.816048576803
 10
4170.715321910509
 20
1597.941048576803
1001
AcDbBlockRepETag
1070
     1
1071
      417
1005
0
  0
LWPOLYLINE
  5
16D
330
2
100
AcDbEntity
  8
SYMBOLE_1
440
 33554559
100
AcDbPolyline
 90
        2
 70
     0
 43
0.0
 10
4167.610757260509
 20
1596.199914526803
 10
4170.715321910509
 20
1597.816048576803
1001
AcDbBlockRepETag
1070
     1
1071
      416
1005
0
  0
LWPOLYLINE
  5
16E
330
2
100
AcDbEntity
  8
SYMBOLE_1
440
 33554559
100
AcDbPolyline
 90
        2
 70
     0
 43
0.0
 10
4167.610757260509
 20
1595.241048576803
 10
4169.610757350509
 20
1597.241048666803
1001
AcDbBlockRepETag
1070
     1
1071
      415
1005
0
  0
LWPOLYLINE
  5
16F
330
2
100
AcDbEntity
  8
SYMBOLE_1
440
 33554559
100
AcDbPolyline
 90
        2
 70
     0
 43
0.0
 10
4167.610757260509
 20
1601.782182626803
 10
4170.715321910509
 20
1600.166048576803
1001
AcDbBlockRepETag
1070
     1
1071
      414
1005
0
  0
LWPOLYLINE
  5
170
330
2
100
AcDbEntity
  8
SYMBOLE_1
440
 33554559
100
AcDbPolyline
 90
        2
 70
     0
 43
0.0
 10
4191.927078100508
 20
1597.816048576803
 10
4189.960099770508
 20
1597.816048576803
1001
AcDbBlockRepETag
1070
     1
1071
      413
1005
0
  0
LWPOLYLINE
  5
171
330
2
100
AcDbEntity
  8
SYMBOLE_1
440
 33554559
100
AcDbPolyline
 90
        3
 70
     0
 43
0.0
 10
4194.323121680509
 20
1598.190035146803
 10
4193.295602040508
 20
1597.816048576803
 10
4192.360099770509
 20
1597.816048576803
1001
AcDbBlockRepETag
1070
     1
1071
      412
1005
0
  0
LWPOLYLINE
  5
172
330
2
100
AcDbEntity
  8
SYMBOLE_1
440
 33554559
100
AcDbPolyline
 90
        2
 70
     0
 43
0.0
 10
4193.519400260508
 20
1600.084592686803
 10
4195.696927480509
 20
1599.542037566803
1001
AcDbBlockRepETag
1070
     1
1071
      411
1005
0
  0
LWPOLYLINE
  5
173
330
2
100
AcDbEntity
  8
SYMBOLE_1
440
 33554559
100
AcDbPolyline
 90
        2
 70
     0
 43
0.0
 10
4191.284122500508
 20
1600.166048576803
 10
4193.080014590509
 20
1600.166048576803
1001
AcDbBlockRepETag
1070
     1
1071
      410
1005
0
  0
LWPOLYLINE
  5
174
330
2
100
AcDbEntity
  8
SYMBOLE_1
440
 33554559
100
AcDbPolyline
 90
        2
 70
     0
 43
0.0
 10
4188.884122500508
 20
1600.166048576803
 10
4190.851100830508
 20
1600.166048576803
1001
AcDbBlockRepETag
1070
     1
1071
      409
1005
0
  0
LWPOLYLINE
  5
175
330
2
100
AcDbEntity
  8
SYMBOLE_1
440
 33554559
100
AcDbPolyline
 90
        2
 70
     0
 43
0.0
 10
4192.163038020508
 20
1597.191048576803
 10
4192.360099770509
 20
1597.816048576803
1001
AcDbBlockRepETag
1070
     1
1071
      408
1005
0
  0
LWPOLYLINE
  5
176
330
2
100
AcDbEntity
  8
SYMBOLE_1
440
 33554559
100
AcDbPolyline
 90
        2
 70
     0
 43
0.0
 10
4191.048162570509
 20
1600.791048576803
 10
4190.851100830508
 20
1600.166048576803
1001
AcDbBlockRepETag
1070
     1
1071
      407
1005
0
  0
LWPOLYLINE
  5
177
330
2
100
AcDbEntity
  8
SYMBOLE_1
440
 33554559
100
AcDbPolyline
 90
        2
 70
     0
 43
0.0
 10
4188.648162570507
 20
1600.791048576803
 10
4188.451100830508
 20
1600.166048576803
1001
AcDbBlockRepETag
1070
     1
1071
      406
1005
0
  0
LWPOLYLINE
  5
178
330
2
100
AcDbEntity
  8
SYMBOLE_1
440
 33554559
100
AcDbPolyline
 90
        2
 70
     0
 43
0.0
 10
4189.763038020508
 20
1597.191048576803
 10
4189.960099770508
 20
1597.816048576803
1001
AcDbBlockRepETag
1070
     1
1071
      405
1005
0
  0
LWPOLYLINE
  5
179
330
2
100
AcDbEntity
  8
SYMBOLE_1
440
 33554559
100
AcDbPolyline
 90
        2
 70
     0
 43
0.0
 10
4188.451100830508
 20
1600.166048576803
 10
4189.763038020508
 20
1597.191048576803
1001
AcDbBlockRepETag
1070
     1
1071
      404
1005
0
  0
LWPOLYLINE
  5
17A
330
2
100
AcDbEntity
  8
SYMBOLE_1
440
 33554559
100
AcDbPolyline
 90
        2
 70
     0
 43
0.0
 10
4189.960099770508
 20
1597.816048576803
 10
4188.648162570507
 20
1600.791048576803
1001
AcDbBlockRepETag
1070
     1
1071
      403
1005
0
  0
LWPOLYLINE
  5
17B
330
2
100
AcDbEntity
  8
SYMBOLE_1
440
 33554559
100
AcDbPolyline
 90
        2
 70
     0
 43
0.0
 10
4190.851100830508
 20
1600.166048576803
 10
4192.163038020508
 20
1597.191048576803
1001
AcDbBlockRepETag
1070
     1
1071
      402
1005
0
  0
LWPOLYLINE
  5
17C
330
2
100
AcDbEntity
  8
SYMBOLE_1
440
 33554559
100
AcDbPolyline
 90
        2
 70
     0
 43
0.0
 10
4192.360099770509
 20
1597.816048576803
 10
4191.048162570509
 20
1600.791048576803
1001
AcDbBlockRepETag
1070
     1
1071
      401
1005
0
  0
LWPOLYLINE
  5
17D
330
2
100
AcDbEntity
  8
SYMBOLE_1
440
 33554559
100
AcDbPolyline
 90
        2
 70
     0
 43
0.0
 10
4196.329542110508
 20
1598.670312486803
 10
4194.800052470508
 20
1598.363623766803
1001
AcDbBlockRepETag
1070
     1
1071
      400
1005
0
  0
LWPOLYLINE
  5
17E
330
2
100
AcDbEntity
  8
SYMBOLE_1
440
 33554559
100
AcDbPolyline
 90
        3
 70
     0
 43
0.0
 10
4196.818125690508
 20
1598.848142376803
 10
4197.210757250508
 20
1598.991048576803
 10
4196.536259820508
 20
1599.236545576803
1001
AcDbBlockRepETag
1070
     1
1071
      399
1005
0
  0
LWPOLYLINE
  5
17F
330
2
100
AcDbEntity
  8
SYMBOLE_1
440
 33554559
100
AcDbPolyline
 90
        2
 70
     0
 43
0.0
 10
4196.770117310509
 20
1598.313212316803
 10
4195.744935860508
 20
1600.076967626803
1001
AcDbBlockRepETag
1070
     1
1071
      398
1005
0
  0
LWPOLYLINE
  5
180
330
2
100
AcDbEntity
  8
SYMBOLE_1
440
 33554559
100
AcDbPolyline
 90
        3
 70
     0
 43
0.0
 10
4195.744935860508
 20
1600.076967626803
 10
4195.696927480509
 20
1599.542037566803
 10
4196.770117310509
 20
1598.313212316803
1001
AcDbBlockRepETag
1070
     1
1071
      397
1005
0
  0
LWPOLYLINE
  5
181
330
2
100
AcDbEntity
  8
SYMBOLE_1
440
 33554559
100
AcDbPolyline
 90
        3
 70
     0
 43
0.0
 10
4196.770117310509
 20
1598.313212316803
 10
4196.818125690508
 20
1598.848142376803
 10
4195.744935860508
 20
1600.076967626803
1001
AcDbBlockRepETag
1070
     1
1071
      396
1005
0
  0
LWPOLYLINE
  5
182
330
2
100
AcDbEntity
  8
SYMBOLE_1
440
 33554559
100
AcDbPolyline
 90
        3
 70
     0
 43
0.0
 10
4194.670259550508
 20
1597.588011886803
 10
4194.800052470508
 20
1598.363623766803
 10
4193.168282660508
 20
1600.693517786803
1001
AcDbBlockRepETag
1070
     1
1071
      395
1005
0
  0
LWPOLYLINE
  5
183
330
2
100
AcDbEntity
  8
SYMBOLE_1
440
 33554559
100
AcDbPolyline
 90
        2
 70
     0
 43
0.0
 10
4194.670259550508
 20
1597.588011886803
 10
4193.168282660508
 20
1600.693517786803
1001
AcDbBlockRepETag
1070
     1
1071
      394
1005
0
  0
LWPOLYLINE
  5
184
330
2
100
AcDbEntity
  8
SYMBOLE_1
440
 33554559
100
AcDbPolyline
 90
        2
 70
     0
 43
0.0
 10
4194.323121680509
 20
1598.190035146803
 10
4194.670259550508
 20
1597.588011886803
1001
AcDbBlockRepETag
1070
     1
1071
      393
1005
0
  0
LWPOLYLINE
  5
185
330
2
100
AcDbEntity
  8
SYMBOLE_1
440
 33554559
100
AcDbPolyline
 90
        2
 70
     0
 43
0.0
 10
4193.168282660508
 20
1600.693517786803
 10
4193.080014590509
 20
1600.166048576803
1001
AcDbBlockRepETag
1070
     1
1071
      392
1005
0
  0
LWPOLYLINE
  5
186
330
2
100
AcDbEntity
  8
SYMBOLE_1
440
 33554559
100
AcDbPolyline
 90
        2
 70
     0
 43
0.0
 10
4194.323121680509
 20
1598.190035146803
 10
4193.080014590509
 20
1600.166048576803
1001
AcDbBlockRepETag
1070
     1
1071
      391
1005
0
  0
LWPOLYLINE
  5
187
330
2
100
AcDbEntity
  8
SYMBOLE_1
440
 33554559
100
AcDbPolyline
 90
        2
 70
     0
 43
0.0
 10
4191.048162570509
 20
1600.791048576803
 10
4192.163038020508
 20
1597.191048576803
1001
AcDbBlockRepETag
1070
     1
1071
      390
1005
0
  0
LWPOLYLINE
  5
188
330
2
100
AcDbEntity
  8
SYMBOLE_1
440
 33554559
100
AcDbPolyline
 90
        2
 70
     0
 43
0.0
 10
4188.648162570507
 20
1600.791048576803
 10
4189.763038020508
 20
1597.191048576803
1001
AcDbBlockRepETag
1070
     1
1071
      389
1005
0
  0
LWPOLYLINE
  5
189
330
2
100
AcDbEntity
  8
SYMBOLE_1
440
 33554559
100
AcDbPolyline
 90
        2
 70
     0
 43
0.0
 10
4187.599512110508
 20
1597.941048576803
 10
4187.603082980507
 20
1597.941048576803
1001
AcDbBlockRepETag
1070
     1
1071
      388
1005
0
  0
LWPOLYLINE
  5
18A
330
2
100
AcDbEntity
  8
SYMBOLE_1
440
 33554559
100
AcDbPolyline
 90
        2
 70
     0
 43
0.0
 10
4185.199512110508
 20
1597.941048576803
 10
4187.060497080508
 20
1597.941048576803
1001
AcDbBlockRepETag
1070
     1
1071
      387
1005
0
  0
LWPOLYLINE
  5
18B
330
2
100
AcDbEntity
  8
SYMBOLE_1
440
 33554559
100
AcDbPolyline
 90
        2
 70
     0
 43
0.0
 10
4182.799512110508
 20
1597.941048576803
 10
4184.660497080508
 20
1597.941048576803
1001
AcDbBlockRepETag
1070
     1
1071
      386
1005
0
  0
LWPOLYLINE
  5
18C
330
2
100
AcDbEntity
  8
SYMBOLE_1
440
 33554559
100
AcDbPolyline
 90
        2
 70
     0
 43
0.0
 10
4180.399512110508
 20
1597.941048576803
 10
4182.260497080508
 20
1597.941048576803
1001
AcDbBlockRepETag
1070
     1
1071
      385
1005
0
  0
LWPOLYLINE
  5
18D
330
2
100
AcDbEntity
  8
SYMBOLE_1
440
 33554559
100
AcDbPolyline
 90
        2
 70
     0
 43
0.0
 10
4177.999512110509
 20
1597.941048576803
 10
4179.860497080507
 20
1597.941048576803
1001
AcDbBlockRepETag
1070
     1
1071
      384
1005
0
  0
LWPOLYLINE
  5
18E
330
2
100
AcDbEntity
  8
SYMBOLE_1
440
 33554559
100
AcDbPolyline
 90
        2
 70
     0
 43
0.0
 10
4175.599512110507
 20
1597.941048576803
 10
4177.460497080509
 20
1597.941048576803
1001
AcDbBlockRepETag
1070
     1
1071
      383
1005
0
  0
LWPOLYLINE
  5
18F
330
2
100
AcDbEntity
  8
SYMBOLE_1
440
 33554559
100
AcDbPolyline
 90
        2
 70
     0
 43
0.0
 10
4170.715321910509
 20
1597.941048576803
 10
4175.060497080509
 20
1597.941048576803
1001
AcDbBlockRepETag
1070
     1
1071
      382
1005
0
  0
LWPOLYLINE
  5
190
330
2
100
AcDbEntity
  8
SYMBOLE_1
440
 33554559
100
AcDbPolyline
 90
        2
 70
     0
 43
0.0
 10
4174.011688480508
 20
1600.041048576803
 10
4170.715321910509
 20
1600.041048576803
1001
AcDbBlockRepETag
1070
     1
1071
      381
1005
0
  0
LWPOLYLINE
  5
191
330
2
100
AcDbEntity
  8
SYMBOLE_1
440
 33554559
100
AcDbPolyline
 90
        2
 70
     0
 43
0.0
 10
4176.411688480508
 20
1600.041048576803
 10
4174.550703520508
 20
1600.041048576803
1001
AcDbBlockRepETag
1070
     1
1071
      380
1005
0
  0
LWPOLYLINE
  5
192
330
2
100
AcDbEntity
  8
SYMBOLE_1
440
 33554559
100
AcDbPolyline
 90
        2
 70
     0
 43
0.0
 10
4178.811688480508
 20
1600.041048576803
 10
4176.950703520508
 20
1600.041048576803
1001
AcDbBlockRepETag
1070
     1
1071
      379
1005
0
  0
LWPOLYLINE
  5
193
330
2
100
AcDbEntity
  8
SYMBOLE_1
440
 33554559
100
AcDbPolyline
 90
        2
 70
     0
 43
0.0
 10
4181.211688480508
 20
1600.041048576803
 10
4179.350703520508
 20
1600.041048576803
1001
AcDbBlockRepETag
1070
     1
1071
      378
1005
0
  0
LWPOLYLINE
  5
194
330
2
100
AcDbEntity
  8
SYMBOLE_1
440
 33554559
100
AcDbPolyline
 90
        2
 70
     0
 43
0.0
 10
4183.611688480509
 20
1600.041048576803
 10
4181.750703520508
 20
1600.041048576803
1001
AcDbBlockRepETag
1070
     1
1071
      377
1005
0
  0
LWPOLYLINE
  5
195
330
2
100
AcDbEntity
  8
SYMBOLE_1
440
 33554559
100
AcDbPolyline
 90
        2
 70
     0
 43
0.0
 10
4186.011688480508
 20
1600.041048576803
 10
4184.150703520509
 20
1600.041048576803
1001
AcDbBlockRepETag
1070
     1
1071
      376
1005
0
  0
LWPOLYLINE
  5
196
330
2
100
AcDbEntity
  8
SYMBOLE_1
440
 33554559
100
AcDbPolyline
 90
        2
 70
     0
 43
0.0
 10
4187.603082980507
 20
1600.041048576803
 10
4186.550703520508
 20
1600.041048576803
1001
AcDbBlockRepETag
1070
     1
1071
      375
1005
0
  0
LWPOLYLINE
  5
197
330
2
100
AcDbEntity
  8
SYMBOLE_1
440
 33554559
100
AcDbPolyline
 90
        2
 70
     0
 43
0.0
 10
4186.248162570508
 20
1600.791048576803
 10
4187.363038020508
 20
1597.191048576803
1001
AcDbBlockRepETag
1070
     1
1071
      374
1005
0
  0
LWPOLYLINE
  5
198
330
2
100
AcDbEntity
  8
SYMBOLE_1
440
 33554559
100
AcDbPolyline
 90
        3
 70
     0
 43
0.0
 10
4187.363038020508
 20
1597.191048576803
 10
4187.599512110508
 20
1597.941048576803
 10
4186.248162570508
 20
1600.791048576803
1001
AcDbBlockRepETag
1070
     1
1071
      373
1005
0
  0
LWPOLYLINE
  5
199
330
2
100
AcDbEntity
  8
SYMBOLE_1
440
 33554559
100
AcDbPolyline
 90
        3
 70
     0
 43
0.0
 10
4186.248162570508
 20
1600.791048576803
 10
4186.011688480508
 20
1600.041048576803
 10
4187.363038020508
 20
1597.191048576803
1001
AcDbBlockRepETag
1070
     1
1071
      372
1005
0
  0
LWPOLYLINE
  5
19A
330
2
100
AcDbEntity
  8
SYMBOLE_1
440
 33554559
100
AcDbPolyline
 90
        2
 70
     0
 43
0.0
 10
4183.848162570508
 20
1600.791048576803
 10
4184.963038020508
 20
1597.191048576803
1001
AcDbBlockRepETag
1070
     1
1071
      371
1005
0
  0
LWPOLYLINE
  5
19B
330
2
100
AcDbEntity
  8
SYMBOLE_1
440
 33554559
100
AcDbPolyline
 90
        3
 70
     0
 43
0.0
 10
4184.963038020508
 20
1597.191048576803
 10
4185.199512110508
 20
1597.941048576803
 10
4183.848162570508
 20
1600.791048576803
1001
AcDbBlockRepETag
1070
     1
1071
      370
1005
0
  0
LWPOLYLINE
  5
19C
330
2
100
AcDbEntity
  8
SYMBOLE_1
440
 33554559
100
AcDbPolyline
 90
        3
 70
     0
 43
0.0
 10
4183.848162570508
 20
1600.791048576803
 10
4183.611688480509
 20
1600.041048576803
 10
4184.963038020508
 20
1597.191048576803
1001
AcDbBlockRepETag
1070
     1
1071
      369
1005
0
  0
LWPOLYLINE
  5
19D
330
2
100
AcDbEntity
  8
SYMBOLE_1
440
 33554559
100
AcDbPolyline
 90
        2
 70
     0
 43
0.0
 10
4181.448162570508
 20
1600.791048576803
 10
4182.563038020508
 20
1597.191048576803
1001
AcDbBlockRepETag
1070
     1
1071
      368
1005
0
  0
LWPOLYLINE
  5
19E
330
2
100
AcDbEntity
  8
SYMBOLE_1
440
 33554559
100
AcDbPolyline
 90
        3
 70
     0
 43
0.0
 10
4182.563038020508
 20
1597.191048576803
 10
4182.799512110508
 20
1597.941048576803
 10
4181.448162570508
 20
1600.791048576803
1001
AcDbBlockRepETag
1070
     1
1071
      367
1005
0
  0
LWPOLYLINE
  5
19F
330
2
100
AcDbEntity
  8
SYMBOLE_1
440
 33554559
100
AcDbPolyline
 90
        3
 70
     0
 43
0.0
 10
4181.448162570508
 20
1600.791048576803
 10
4181.211688480508
 20
1600.041048576803
 10
4182.563038020508
 20
1597.191048576803
1001
AcDbBlockRepETag
1070
     1
1071
      366
1005
0
  0
LWPOLYLINE
  5
1A0
330
2
100
AcDbEntity
  8
SYMBOLE_1
440
 33554559
100
AcDbPolyline
 90
        2
 70
     0
 43
0.0
 10
4179.048162570508
 20
1600.791048576803
 10
4180.163038020508
 20
1597.191048576803
1001
AcDbBlockRepETag
1070
     1
1071
      365
1005
0
  0
LWPOLYLINE
  5
1A1
330
2
100
AcDbEntity
  8
SYMBOLE_1
440
 33554559
100
AcDbPolyline
 90
        3
 70
     0
 43
0.0
 10
4180.163038020508
 20
1597.191048576803
 10
4180.399512110508
 20
1597.941048576803
 10
4179.048162570508
 20
1600.791048576803
1001
AcDbBlockRepETag
1070
     1
1071
      364
1005
0
  0
LWPOLYLINE
  5
1A2
330
2
100
AcDbEntity
  8
SYMBOLE_1
440
 33554559
100
AcDbPolyline
 90
        3
 70
     0
 43
0.0
 10
4179.048162570508
 20
1600.791048576803
 10
4178.811688480508
 20
1600.041048576803
 10
4180.163038020508
 20
1597.191048576803
1001
AcDbBlockRepETag
1070
     1
1071
      363
1005
0
  0
LWPOLYLINE
  5
1A3
330
2
100
AcDbEntity
  8
SYMBOLE_1
440
 33554559
100
AcDbPolyline
 90
        2
 70
     0
 43
0.0
 10
4176.648162570508
 20
1600.791048576803
 10
4177.763038020508
 20
1597.191048576803
1001
AcDbBlockRepETag
1070
     1
1071
      362
1005
0
  0
LWPOLYLINE
  5
1A4
330
2
100
AcDbEntity
  8
SYMBOLE_1
440
 33554559
100
AcDbPolyline
 90
        3
 70
     0
 43
0.0
 10
4177.763038020508
 20
1597.191048576803
 10
4177.999512110509
 20
1597.941048576803
 10
4176.648162570508
 20
1600.791048576803
1001
AcDbBlockRepETag
1070
     1
1071
      361
1005
0
  0
LWPOLYLINE
  5
1A5
330
2
100
AcDbEntity
  8
SYMBOLE_1
440
 33554559
100
AcDbPolyline
 90
        3
 70
     0
 43
0.0
 10
4176.648162570508
 20
1600.791048576803
 10
4176.411688480508
 20
1600.041048576803
 10
4177.763038020508
 20
1597.191048576803
1001
AcDbBlockRepETag
1070
     1
1071
      360
1005
0
  0
LWPOLYLINE
  5
1A6
330
2
100
AcDbEntity
  8
SYMBOLE_1
440
 33554559
100
AcDbPolyline
 90
        2
 70
     0
 43
0.0
 10
4174.248162570507
 20
1600.791048576803
 10
4175.363038020509
 20
1597.191048576803
1001
AcDbBlockRepETag
1070
     1
1071
      359
1005
0
  0
LWPOLYLINE
  5
1A7
330
2
100
AcDbEntity
  8
SYMBOLE_1
440
 33554559
100
AcDbPolyline
 90
        3
 70
     0
 43
0.0
 10
4175.363038020509
 20
1597.191048576803
 10
4175.599512110507
 20
1597.941048576803
 10
4174.248162570507
 20
1600.791048576803
1001
AcDbBlockRepETag
1070
     1
1071
      358
1005
0
  0
LWPOLYLINE
  5
1A8
330
2
100
AcDbEntity
  8
SYMBOLE_1
440
 33554559
100
AcDbPolyline
 90
        3
 70
     0
 43
0.0
 10
4174.248162570507
 20
1600.791048576803
 10
4174.011688480508
 20
1600.041048576803
 10
4175.363038020509
 20
1597.191048576803
1001
AcDbBlockRepETag
1070
     1
1071
      357
1005
0
  0
LWPOLYLINE
  5
1A9
330
2
100
AcDbEntity
  8
SYMBOLE_1
440
 33554559
100
AcDbPolyline
 90
        2
 70
     0
 43
0.0
 10
4167.610757260509
 20
1602.741048576803
 10
4169.610757350509
 20
1600.741048486803
1001
AcDbBlockRepETag
1070
     1
1071
      356
1005
0
  0
LWPOLYLINE
  5
1AA
330
2
100
AcDbEntity
  8
SYMBOLE_1
440
 33554559
100
AcDbPolyline
 90
        2
 70
     0
 43
0.0
 10
4170.715321910509
 20
1600.166048576803
 10
4170.715321910509
 20
1600.041048576803
1001
AcDbBlockRepETag
1070
     1
1071
      355
1005
0
  0
LWPOLYLINE
  5
1AB
330
2
100
AcDbEntity
  8
SYMBOLE_1
440
 33554559
100
AcDbPolyline
 90
        2
 70
     0
 43
0.0
 10
4189.527078100508
 20
1597.816048576803
 10
4187.560099770507
 20
1597.816048576803
1001
AcDbBlockRepETag
1070
     1
1071
      354
1005
0
  0
LWPOLYLINE
  5
1AC
330
2
100
AcDbEntity
  8
SYMBOLE_1
440
 33554559
100
AcDbPolyline
 90
        2
 70
     0
 43
0.0
 10
4187.560099770507
 20
1600.166048576803
 10
4188.451100830508
 20
1600.166048576803
1001
AcDbBlockRepETag
1070
     1
1071
      353
1005
0
  0
LWPOLYLINE
  5
1AD
330
2
100
AcDbEntity
  8
SYMBOLE_1
440
 33554559
100
AcDbPolyline
 90
        2
 70
     0
 43
0.0
 10
4187.560099770507
 20
1597.816048576803
 42
0.2233508859574445
 10
4187.560099770507
 20
1598.991048576803
1001
AcDbBlockRepETag
1070
     1
1071
      352
1005
0
  0
LWPOLYLINE
  5
1AE
330
2
100
AcDbEntity
  8
SYMBOLE_1
440
 33554559
100
AcDbPolyline
 90
        2
 70
     0
 43
0.0
 10
4187.560099770507
 20
1598.991048576803
 42
0.2233508859574445
 10
4187.560099770507
 20
1600.166048576803
1001
AcDbBlockRepETag
1070
     1
1071
      351
1005
0
  0
LWPOLYLINE
  5
1AF
330
2
100
AcDbEntity
  8
SYMBOLE_1
440
 33554559
100
AcDbPolyline
 90
        5
 70
     0
 43
0.0
 10
4167.610757260509
 20
1602.741048576803
 10
4167.210757250508
 20
1602.741048576803
 10
4167.210757250508
 20
1595.241048576803
 10
4167.610757260509
 20
1595.241048576803
 10
4167.610757260509
 20
1602.741048576803
1001
AcDbBlockRepETag
1070
     1
1071
      350
1005
0
  0
LINE
  5
1B0
330
2
100
AcDbEntity
  8
SYMBOLE_1
  6
ACAD_ISO10W100
440
 33554559
 48
0.5
100
AcDbLine
 10
4197.210757250508
 20
1598.991048576803
 30
0.0
 11
4167.210757250508
 21
1598.991048576803
 31
0.0
1001
AcDbBlockRepETag
1070
     1
1071
      349
1005
0
  0
DIMENSION
  5
1B1
102
{ACAD_XDICTIONARY
360
1B2
102
}
102
{ACAD_REACTORS
330
1B3
102
}
330
2
100
AcDbEntity
  8
BEM-1
 48
0.5
100
AcDbDimension
280
     0
  2
*D2
 10
4189.374255309112
 20
1555.991048576804
 30
0.0
 11
4186.842536345946
 21
1579.991048576802
 31
0.0
 71
     5
 42
48.0
 73
     0
 74
     0
 75
     0
  3
BEM-1
100
AcDbAlignedDimension
 13
4179.210757250507
 23
1603.991048576803
 33
0.0
 14
4179.210757250507
 24
1555.991048576803
 34
0.0
 50
90.0
100
AcDbRotatedDimension
  0
DIMENSION
  5
1C5
102
{ACAD_XDICTIONARY
360
1C6
102
}
102
{ACAD_REACTORS
330
1C7
102
}
330
2
100
AcDbEntity
  8
BEM-1
 48
0.5
100
AcDbDimension
280
     0
  2
*D1
 10
4179.210757250507
 20
1615.007789866875
 30
0.0
 11
4166.710757250508
 21
1617.53950883004
 31
0.0
 71
     5
 42
25.0
 73
     0
 74
     0
 75
     0
  3
BEM-1
100
AcDbAlignedDimension
 13
4154.210757250508
 23
1603.991048576803
 33
0.0
 14
4179.210757250507
 24
1603.991048576803
 34
0.0
100
AcDbRotatedDimension
  0
LWPOLYLINE
  5
1D4
102
{ACAD_REACTORS
330
1D8
102
}
330
2
100
AcDbEntity
  8
V1_035
 62
     4
 48
0.5
100
AcDbPolyline
 90
       12
 70
     1
 43
0.0
 10
4171.110757250509
 20
1564.991048576803
 10
4171.110757250509
 20
1568.391048576803
 10
4162.31075725051
 20
1568.391048576803
 10
4162.31075725051
 20
1564.991048576803
 10
4158.71075725051
 20
1564.991048576803
 10
4158.71075725051
 20
1594.991048576803
 10
4162.31075725051
 20
1594.991048576803
 10
4162.31075725051
 20
1591.591048576803
 10
4171.110757250509
 20
1591.591048576803
 10
4171.110757250509
 20
1594.991048576803
 10
4174.71075725051
 20
1594.991048576803
 10
4174.71075725051
 20
1564.991048576803
  0
HATCH
  5
1D8
330
2
100
AcDbEntity
  8
SCHRAFFUR
 48
0.5
100
AcDbHatch
 10
0.0
 20
0.0
 30
0.0
210
0.0
220
0.0
230
1.0
  2
_U
 70
     0
 71
     1
 91
        1
 92
        1
 93
       12
 72
     1
 10
4171.110757250509
 20
1564.991048576803
 11
4171.110757250509
 21
1568.391048576803
 72
     1
 10
4171.110757250509
 20
1568.391048576803
 11
4162.31075725051
 21
1568.391048576803
 72
     1
 10
4162.31075725051
 20
1568.391048576803
 11
4162.31075725051
 21
1564.991048576803
 72
     1
 10
4162.31075725051
 20
1564.991048576803
 11
4158.71075725051
 21
1564.991048576803
 72
     1
 10
4158.71075725051
 20
1564.991048576803
 11
4158.71075725051
 21
1594.991048576803
 72
     1
 10
4158.71075725051
 20
1594.991048576803
 11
4162.31075725051
 21
1594.991048576803
 72
     1
 10
4162.31075725051
 20
1594.991048576803
 11
4162.31075725051
 21
1591.591048576803
 72
     1
 10
4162.31075725051
 20
1591.591048576803
 11
4171.110757250509
 21
1591.591048576803
 72
     1
 10
4171.110757250509
 20
1591.591048576803
 11
4171.110757250509
 21
1594.991048576803
 72
     1
 10
4171.110757250509
 20
1594.991048576803
 11
4174.71075725051
 21
1594.991048576803
 72
     1
 10
4174.71075725051
 20
1594.991048576803
 11
4174.71075725051
 21
1564.991048576803
 72
     1
 10
4174.71075725051
 20
1564.991048576803
 11
4171.110757250509
 21
1564.991048576803
 97
        1
330
1D4
 75
     1
 76
     0
 52
45.0
 41
3.0
 77
     0
 78
     1
 53
45.0
 43
348.439305984648
 44
0.0
 45
-2.121320343559642
 46
2.121320343559642
 79
     0
 98
        1
 10
348.439305984648
 20
0.0
1001
GradientColor1ACI
1070
     5
1001
GradientColor2ACI
1070
     2
1001
ACAD
1010
0.0
1020
0.0
1030
0.0
  0
LWPOLYLINE
  5
1D9
102
{ACAD_REACTORS
330
1C7
330
1B3
330
1DA
102
}
330
2
100
AcDbEntity
  8
V1_035
 62
     4
 48
0.5
100
AcDbPolyline
 90
       16
 70
     1
 43
0.0
 10
4167.210757250508
 20
1567.991048576803
 10
4170.610757250508
 20
1567.991048576803
 10
4170.610757250508
 20
1564.591048576803
 10
4174.81075725051
 20
1564.591048576803
 10
4174.81075725051
 20
1567.991048576803
 10
4175.210757250508
 20
1567.991048576803
 10
4175.210757250508
 20
1591.991048576803
 10
4174.81075725051
 20
1591.991048576803
 10
4174.81075725051
 20
1595.391048576803
 10
4170.610757250508
 20
1595.391048576803
 10
4170.610757250508
 20
1591.991048576803
 10
4167.210757250508
 20
1591.991048576803
 10
4167.210757250508
 20
1603.991048576803
 10
4179.210757250507
 20
1603.991048576803
 10
4179.210757250507
 20
1555.991048576803
 10
4167.210757250508
 20
1555.991048576803
  0
HATCH
  5
1DA
330
2
100
AcDbEntity
  8
SCHRAFFUR
 48
0.5
100
AcDbHatch
 10
0.0
 20
0.0
 30
0.0
210
0.0
220
0.0
230
1.0
  2
_U
 70
     0
 71
     1
 91
        1
 92
        1
 93
       16
 72
     1
 10
4167.210757250508
 20
1567.991048576803
 11
4170.610757250508
 21
1567.991048576803
 72
     1
 10
4170.610757250508
 20
1567.991048576803
 11
4170.610757250508
 21
1564.591048576803
 72
     1
 10
4170.610757250508
 20
1564.591048576803
 11
4174.810757250508
 21
1564.591048576803
 72
     1
 10
4174.81075725051
 20
1564.591048576803
 11
4174.81075725051
 21
1567.991048576803
 72
     1
 10
4174.81075725051
 20
1567.991048576803
 11
4175.210757250508
 21
1567.991048576803
 72
     1
 10
4175.210757250508
 20
1567.991048576803
 11
4175.210757250508
 21
1591.991048576803
 72
     1
 10
4175.210757250508
 20
1591.991048576803
 11
4174.81075725051
 21
1591.991048576803
 72
     1
 10
4174.81075725051
 20
1591.991048576803
 11
4174.81075725051
 21
1595.391048576803
 72
     1
 10
4174.81075725051
 20
1595.391048576803
 11
4170.610757250508
 21
1595.391048576803
 72
     1
 10
4170.610757250508
 20
1595.391048576803
 11
4170.610757250508
 21
1591.991048576803
 72
     1
 10
4170.610757250508
 20
1591.991048576803
 11
4167.210757250508
 21
1591.991048576803
 72
     1
 10
4167.210757250508
 20
1591.991048576803
 11
4167.210757250508
 21
1603.991048576803
 72
     1
 10
4167.210757250508
 20
1603.991048576803
 11
4179.210757250507
 21
1603.991048576803
 72
     1
 10
4179.210757250507
 20
1603.991048576803
 11
4179.210757250507
 21
1555.991048576803
 72
     1
 10
4179.210757250507
 20
1555.991048576803
 11
4167.210757250508
 21
1555.991048576803
 72
     1
 10
4167.210757250508
 20
1555.991048576803
 11
4167.210757250508
 21
1567.991048576803
 97
        1
330
1D9
 75
     1
 76
     0
 52
135.0
 41
3.0
 77
     0
 78
     1
 53
135.0
 43
348.439305984648
 44
0.0
 45
-2.121320343559642
 46
-2.121320343559642
 79
     0
 98
        1
 10
348.439305984648
 20
0.0
1001
GradientColor1ACI
1070
     5
1001
GradientColor2ACI
1070
     2
1001
ACAD
1010
0.0
1020
0.0
1030
0.0
  0
LWPOLYLINE
  5
1DB
102
{ACAD_REACTORS
330
1C7
330
1DC
102
}
330
2
100
AcDbEntity
  8
V1_035
 62
     4
 48
0.5
100
AcDbPolyline
 90
       16
 70
     1
 43
0.0
 10
4166.210757250508
 20
1567.991048576803
 10
4162.810757250508
 20
1567.991048576803
 10
4162.810757250508
 20
1564.591048576803
 10
4158.610757250509
 20
1564.591048576803
 10
4158.610757250509
 20
1567.991048576803
 10
4158.210757250508
 20
1567.991048576803
 10
4158.210757250508
 20
1591.991048576803
 10
4158.610757250509
 20
1591.991048576803
 10
4158.610757250509
 20
1595.391048576803
 10
4162.810757250508
 20
1595.391048576803
 10
4162.810757250508
 20
1591.991048576803
 10
4166.210757250508
 20
1591.991048576803
 10
4166.210757250508
 20
1603.991048576803
 10
4154.210757250508
 20
1603.991048576803
 10
4154.210757250508
 20
1555.991048576803
 10
4166.210757250508
 20
1555.991048576803
  0
HATCH
  5
1DC
330
2
100
AcDbEntity
  8
SCHRAFFUR
 48
0.5
100
AcDbHatch
 10
0.0
 20
0.0
 30
0.0
210
0.0
220
0.0
230
1.0
  2
_U
 70
     0
 71
     1
 91
        1
 92
        1
 93
       16
 72
     1
 10
4166.210757250508
 20
1567.991048576803
 11
4162.810757250508
 21
1567.991048576803
 72
     1
 10
4162.810757250508
 20
1567.991048576803
 11
4162.810757250508
 21
1564.591048576803
 72
     1
 10
4162.810757250508
 20
1564.591048576803
 11
4158.610757250509
 21
1564.591048576803
 72
     1
 10
4158.610757250509
 20
1564.591048576803
 11
4158.610757250509
 21
1567.991048576803
 72
     1
 10
4158.610757250509
 20
1567.991048576803
 11
4158.210757250508
 21
1567.991048576803
 72
     1
 10
4158.210757250508
 20
1567.991048576803
 11
4158.210757250508
 21
1591.991048576803
 72
     1
 10
4158.210757250508
 20
1591.991048576803
 11
4158.610757250509
 21
1591.991048576803
 72
     1
 10
4158.610757250509
 20
1591.991048576803
 11
4158.610757250509
 21
1595.391048576803
 72
     1
 10
4158.610757250509
 20
1595.391048576803
 11
4162.810757250508
 21
1595.391048576803
 72
     1
 10
4162.810757250508
 20
1595.391048576803
 11
4162.810757250508
 21
1591.991048576803
 72
     1
 10
4162.810757250508
 20
1591.991048576803
 11
4166.210757250508
 21
1591.991048576803
 72
     1
 10
4166.210757250508
 20
1591.991048576803
 11
4166.210757250508
 21
1603.991048576803
 72
     1
 10
4166.210757250508
 20
1603.991048576803
 11
4154.210757250508
 21
1603.991048576803
 72
     1
 10
4154.210757250508
 20
1603.991048576803
 11
4154.210757250508
 21
1555.991048576803
 72
     1
 10
4154.210757250508
 20
1555.991048576803
 11
4166.210757250508
 21
1555.991048576803
 72
     1
 10
4166.210757250508
 20
1555.991048576803
 11
4166.210757250508
 21
1567.991048576803
 97
        1
330
1DB
 75
     1
 76
     0
 52
45.0
 41
3.0
 77
     0
 78
     1
 53
45.0
 43
348.439305984648
 44
0.0
 45
-2.121320343559642
 46
2.121320343559642
 79
     0
 98
        1
 10
348.439305984648
 20
0.0
1001
GradientColor1ACI
1070
     5
1001
GradientColor2ACI
1070
     2
1001
ACAD
1010
0.0
1020
0.0
1030
0.0
  0
ENDSEC
  0
SECTION
  2
OBJECTS
  0
DICTIONARY
  5
B
330
0
100
AcDbDictionary
281
     1
  3
ACAD_COLOR
350
47
  3
ACAD_FIELDLIST
350
1DE
  3
ACAD_GROUP
350
42
  3
ACAD_LAYOUT
350
13
  3
ACAD_MATERIAL
350
D
  3
ACAD_MLEADERSTYLE
350
4A
  3
ACAD_MLINESTYLE
350
43
  3
ACAD_PLOTSETTINGS
350
44
  3
ACAD_PLOTSTYLENAME
350
A
  3
ACAD_SCALELIST
350
48
  3
ACAD_TABLESTYLE
350
49
  3
ACAD_VISUALSTYLE
350
2E
  3
ACDB_RECOMPOSE_DATA
350
1EC
  3
AcDbVariableDictionary
350
1DF
  0
DICTIONARY
  5
1E
330
1D
100
AcDbDictionary
280
     1
281
     1
  3
ACAD_LAYERFILTERS
360
1F
  3
ACAD_LAYERSTATES
360
20
  3
ACLYDICTIONARY
360
21
  0
DICTIONARY
  5
7
330
6
100
AcDbDictionary
280
     1
281
     1
  3
ADSK_XREC_LAYER_RECONCILED
360
8
  0
DICTIONARY
  5
1D6
330
1D5
100
AcDbDictionary
280
     1
281
     1
  3
ADSK_XREC_LAYER_RECONCILED
360
1D7
  0
DICTIONARY
  5
1C1
330
1C0
100
AcDbDictionary
280
     1
281
     1
  0
DICTIONARY
  5
1B5
330
1B4
100
AcDbDictionary
280
     1
281
     1
  3
ADSK_XREC_LAYER_RECONCILED
360
1B6
  0
DICTIONARY
  5
4C
330
4B
100
AcDbDictionary
280
     1
281
     1
  3
ADSK_XREC_LAYER_RECONCILED
360
4D
  0
DICTIONARY
  5
7C
330
7B
100
AcDbDictionary
280
     1
281
     1
  3
ADSK_XREC_LAYER_RECONCILED
360
7D
  0
DICTIONARY
  5
78
330
77
100
AcDbDictionary
280
     1
281
     1
  3
ADSK_XREC_LAYER_RECONCILED
360
79
  0
DICTIONARY
  5
FE
330
FD
100
AcDbDictionary
280
     1
281
     1
  3
ADSK_XREC_LAYER_RECONCILED
360
FF
  0
DICTIONARY
  5
112
330
111
100
AcDbDictionary
280
     1
281
     1
  3
ADSK_XREC_LAYER_RECONCILED
360
113
  0
DICTIONARY
  5
10C
330
10B
100
AcDbDictionary
280
     1
281
     1
  3
ADSK_XREC_LAYER_RECONCILED
360
10D
  0
DICTIONARY
  5
3
330
2
100
AcDbDictionary
280
     1
281
     1
  3
ACAD_SORTENTS
360
1DD
  0
DICTIONARY
  5
18
330
17
100
AcDbDictionary
280
     1
281
     1
  0
DICTIONARY
  5
1B2
330
1B1
100
AcDbDictionary
280
     1
281
     1
  3
ACAD_DIMASSOC
360
1B3
  0
DICTIONARY
  5
1C6
330
1C5
100
AcDbDictionary
280
     1
281
     1
  3
ACAD_DIMASSOC
360
1C7
  0
DICTIONARY
  5
47
102
{ACAD_REACTORS
330
B
102
}
330
B
100
AcDbDictionary
281
     1
  0
FIELDLIST
  5
1DE
102
{ACAD_REACTORS
330
B
102
}
330
B
100
AcDbIdSet
 90
        0
100
AcDbFieldList
  0
DICTIONARY
  5
42
102
{ACAD_REACTORS
330
B
102
}
330
B
100
AcDbDictionary
281
     1
  0
DICTIONARY
  5
13
102
{ACAD_REACTORS
330
B
102
}
330
B
100
AcDbDictionary
281
     1
  3
Detail_A4-hoch
350
1B
  3
Model
350
12
  0
DICTIONARY
  5
D
102
{ACAD_REACTORS
330
B
102
}
330
B
100
AcDbDictionary
281
     1
  3
ByBlock
350
46
  3
ByLayer
350
45
  3
Global
350
C
  0
DICTIONARY
  5
4A
102
{ACAD_REACTORS
330
B
102
}
330
B
100
AcDbDictionary
281
     1
  0
DICTIONARY
  5
43
102
{ACAD_REACTORS
330
B
102
}
330
B
100
AcDbDictionary
281
     1
  3
STANDARD
350
4F
  0
DICTIONARY
  5
44
102
{ACAD_REACTORS
330
B
102
}
330
B
100
AcDbDictionary
281
     1
  0
ACDBDICTIONARYWDFLT
  5
A
102
{ACAD_REACTORS
330
B
102
}
330
B
100
AcDbDictionary
281
     1
  3
Normal
350
9
100
AcDbDictionaryWithDefault
340
9
  0
DICTIONARY
  5
48
102
{ACAD_REACTORS
330
B
102
}
330
B
100
AcDbDictionary
281
     1
  3
*A1
350
56
  3
*A2
350
57
  3
*A3
350
58
  3
*A4
350
59
  3
*A5
350
5A
  3
*A6
350
5B
  3
*A7
350
5C
  3
*A8
350
5D
  3
A0
350
5E
  3
A1
350
5F
  3
A2
350
60
  3
A3
350
61
  3
A4
350
62
  3
A5
350
63
  3
A6
350
64
  3
A7
350
65
  3
A8
350
66
  3
A9
350
67
  3
B0
350
68
  3
B1
350
69
  3
B2
350
6A
  3
B3
350
6B
  3
B4
350
6C
  3
B5
350
6D
  3
B6
350
6E
  3
B7
350
6F
  3
B8
350
70
  3
B9
350
71
  3
C0
350
72
  3
C1
350
73
  3
C2
350
74
  3
C3
350
75
  0
DICTIONARY
  5
49
102
{ACAD_REACTORS
330
B
102
}
330
B
100
AcDbDictionary
281
     1
  3
RK Menü 1
350
50
  3
Standard
350
54
  0
DICTIONARY
  5
2E
102
{ACAD_REACTORS
330
B
102
}
330
B
100
AcDbDictionary
281
     1
  3
2dWireframe
350
2D
  3
3dWireframe
350
53
  3
Realistic
350
52
  0
XRECORD
  5
1EC
102
{ACAD_REACTORS
330
B
102
}
330
B
100
AcDbXrecord
280
     1
 90
        1
330
50
330
54
  0
DICTIONARY
  5
1DF
102
{ACAD_REACTORS
330
B
102
}
330
B
100
AcDbDictionary
281
     1
  3
CANNOSCALE
350
1E5
  3
CMLEADERSTYLE
350
1E1
  3
CTABLESTYLE
350
1E0
  3
CVIEWDETAILSTYLE
350
1E2
  3
CVIEWSECTIONSTYLE
350
1E3
  3
LAYEREVAL
350
1E7
  3
LAYERNOTIFY
350
1E8
  3
LIGHTINGUNITS
350
1E6
  3
MSLTSCALE
350
1E4
  0
DICTIONARY
  5
1F
102
{ACAD_REACTORS
330
1E
102
}
330
1E
100
AcDbDictionary
281
     1
  0
DICTIONARY
  5
20
102
{ACAD_REACTORS
330
1E
102
}
330
1E
100
AcDbDictionary
281
     1
  0
DICTIONARY
  5
21
102
{ACAD_REACTORS
330
1E
102
}
330
1E
100
AcDbDictionary
281
     1
1001
ACAD
1000
<All
  0
XRECORD
  5
8
102
{ACAD_REACTORS
330
7
102
}
330
7
100
AcDbXrecord
280
     1
290
     1
  0
XRECORD
  5
1D7
102
{ACAD_REACTORS
330
1D6
102
}
330
1D6
100
AcDbXrecord
280
     1
290
     1
  0
XRECORD
  5
1B6
102
{ACAD_REACTORS
330
1B5
102
}
330
1B5
100
AcDbXrecord
280
     1
290
     1
  0
XRECORD
  5
4D
102
{ACAD_REACTORS
330
4C
102
}
330
4C
100
AcDbXrecord
280
     1
290
     1
  0
XRECORD
  5
7D
102
{ACAD_REACTORS
330
7C
102
}
330
7C
100
AcDbXrecord
280
     1
290
     1
  0
XRECORD
  5
79
102
{ACAD_REACTORS
330
78
102
}
330
78
100
AcDbXrecord
280
     1
290
     1
  0
XRECORD
  5
FF
102
{ACAD_REACTORS
330
FE
102
}
330
FE
100
AcDbXrecord
280
     1
290
     1
  0
XRECORD
  5
113
102
{ACAD_REACTORS
330
112
102
}
330
112
100
AcDbXrecord
280
     1
290
     1
  0
XRECORD
  5
10D
102
{ACAD_REACTORS
330
10C
102
}
330
10C
100
AcDbXrecord
280
     1
290
     1
  0
SORTENTSTABLE
  5
1DD
102
{ACAD_REACTORS
330
3
102
}
330
3
100
AcDbSortentsTable
330
2
331
13A
  5
FB
331
13E
  5
F7
331
F1
  5
144
331
132
  5
107
331
F5
  5
140
331
136
  5
103
331
1A0
  5
95
331
1A4
  5
91
331
1D9
  5
80
331
198
  5
9D
331
B1
  5
184
331
19C
  5
99
331
B5
  5
180
331
A9
  5
18C
331
AD
  5
188
331
EA
  5
14B
331
EE
  5
147
331
129
  5
11A
331
12D
  5
116
331
121
  5
122
331
162
  5
D3
331
125
  5
11E
331
166
  5
CF
331
190
  5
A5
331
194
  5
A1
331
188
  5
AD
331
A1
  5
194
331
18C
  5
A9
331
E2
  5
153
331
A5
  5
190
331
E6
  5
14F
331
99
  5
19C
331
9D
  5
198
331
DA
  5
15B
331
DE
  5
157
331
119
  5
12A
331
11D
  5
126
331
15A
  5
DB
331
15E
  5
D7
331
152
  5
E3
331
156
  5
DF
331
183
  5
B2
331
187
  5
AE
331
17B
  5
BA
331
17F
  5
B6
331
D1
  5
164
331
90
  5
1A5
331
D5
  5
160
331
94
  5
1A1
331
88
  5
1AD
331
C9
  5
16C
331
CD
  5
168
331
8C
  5
1A9
331
108
  5
131
331
149
  5
EC
331
14D
  5
E8
331
141
  5
F4
331
145
  5
F0
331
104
  5
135
331
173
  5
C2
331
1B0
  5
85
331
177
  5
BE
331
1A8
  5
8D
331
16B
  5
CA
331
1AC
  5
89
331
C1
  5
174
331
80
  5
1D9
331
16F
  5
C6
331
C5
  5
170
331
84
  5
1B1
331
B9
  5
17C
331
BD
  5
178
331
F8
  5
13D
331
139
  5
FC
331
FC
  5
139
331
13D
  5
F8
331
131
  5
108
331
F0
  5
145
331
135
  5
104
331
F4
  5
141
331
1A3
  5
92
331
1A7
  5
8E
331
1D8
  5
81
331
19B
  5
9A
331
1DC
  5
76
331
B0
  5
185
331
19F
  5
96
331
B4
  5
181
331
A8
  5
18D
331
E9
  5
14C
331
ED
  5
148
331
AC
  5
189
331
76
  5
1DC
331
128
  5
11B
331
12C
  5
117
331
161
  5
D4
331
120
  5
123
331
165
  5
D0
331
124
  5
11F
331
193
  5
A2
331
1D4
  5
82
331
197
  5
9E
331
18B
  5
AA
331
E1
  5
154
331
A0
  5
195
331
18F
  5
A6
331
E5
  5
150
331
A4
  5
191
331
98
  5
19D
331
D9
  5
15C
331
9C
  5
199
331
DD
  5
158
331
159
  5
DC
331
118
  5
12B
331
11C
  5
127
331
15D
  5
D8
331
151
  5
E4
331
110
  5
12E
331
155
  5
E0
331
182
  5
B3
331
186
  5
AF
331
17A
  5
BB
331
17E
  5
B7
331
D0
  5
165
331
93
  5
1A2
331
97
  5
19E
331
D4
  5
161
331
8B
  5
1AA
331
C8
  5
16D
331
CC
  5
169
331
8F
  5
1A6
331
148
  5
ED
331
14C
  5
E9
331
140
  5
F5
331
103
  5
136
331
144
  5
F1
331
107
  5
132
331
172
  5
C3
331
176
  5
BF
331
1AB
  5
8A
331
16A
  5
CB
331
16E
  5
C7
331
C0
  5
175
331
1AF
  5
86
331
83
  5
1C5
331
C4
  5
171
331
87
  5
1AE
331
B8
  5
17D
331
BC
  5
179
331
7F
  5
1DA
331
FB
  5
13A
331
138
  5
101
331
13C
  5
F9
331
130
  5
109
331
F3
  5
142
331
134
  5
105
331
F7
  5
13E
331
1A2
  5
93
331
1A6
  5
8F
331
1DB
  5
7A
331
19A
  5
9B
331
B3
  5
182
331
19E
  5
97
331
B7
  5
17E
331
AB
  5
18A
331
E8
  5
14D
331
EC
  5
149
331
AF
  5
186
331
12B
  5
118
331
12F
  5
10A
331
160
  5
D5
331
123
  5
120
331
164
  5
D1
331
127
  5
11C
331
192
  5
A3
331
196
  5
9F
331
18A
  5
AB
331
E0
  5
155
331
A3
  5
192
331
18E
  5
A7
331
E4
  5
151
331
A7
  5
18E
331
9B
  5
19A
331
D8
  5
15D
331
DC
  5
159
331
9F
  5
196
331
158
  5
DD
331
11B
  5
128
331
11F
  5
124
331
15C
  5
D9
331
150
  5
E5
331
154
  5
E1
331
117
  5
12C
331
181
  5
B4
331
185
  5
B0
331
179
  5
BC
331
17D
  5
B8
331
D3
  5
162
331
92
  5
1A3
331
96
  5
19F
331
D7
  5
15E
331
CB
  5
16A
331
8A
  5
1AB
331
CF
  5
166
331
8E
  5
1A7
331
10A
  5
12F
331
14B
  5
EA
331
14F
  5
E6
331
143
  5
F2
331
102
  5
137
331
147
  5
EE
331
106
  5
133
331
171
  5
C4
331
175
  5
C0
331
169
  5
CC
331
1AA
  5
8B
331
16D
  5
C8
331
1AE
  5
87
331
C3
  5
172
331
82
  5
1D4
331
86
  5
1AF
331
C7
  5
16E
331
7A
  5
1DB
331
BB
  5
17A
331
BF
  5
176
331
FA
  5
13B
331
13B
  5
FA
331
13F
  5
F6
331
133
  5
106
331
F2
  5
143
331
137
  5
102
331
F6
  5
13F
331
1A1
  5
94
331
1A5
  5
90
331
199
  5
9C
331
1DA
  5
7F
331
19D
  5
98
331
B2
  5
183
331
B6
  5
17F
331
AA
  5
18B
331
EB
  5
14A
331
EF
  5
146
331
AE
  5
187
331
12A
  5
119
331
12E
  5
110
331
163
  5
D2
331
122
  5
121
331
167
  5
CE
331
126
  5
11D
331
191
  5
A4
331
195
  5
A0
331
189
  5
AC
331
18D
  5
A8
331
E3
  5
152
331
A2
  5
193
331
E7
  5
14E
331
A6
  5
18F
331
9A
  5
19B
331
DB
  5
15A
331
DF
  5
156
331
9E
  5
197
331
11A
  5
129
331
15B
  5
DA
331
11E
  5
125
331
15F
  5
D6
331
153
  5
E2
331
157
  5
DE
331
116
  5
12D
331
180
  5
B5
331
1C5
  5
83
331
184
  5
B1
331
178
  5
BD
331
91
  5
1A4
331
17C
  5
B9
331
D2
  5
163
331
95
  5
1A0
331
89
  5
1AC
331
D6
  5
15F
331
CA
  5
16B
331
8D
  5
1A8
331
CE
  5
167
331
109
  5
130
331
14A
  5
EB
331
14E
  5
E7
331
101
  5
138
331
142
  5
F3
331
105
  5
134
331
146
  5
EF
331
170
  5
C5
331
1B1
  5
84
331
174
  5
C1
331
1A9
  5
8C
331
168
  5
CD
331
1AD
  5
88
331
81
  5
1D8
331
16C
  5
C9
331
C2
  5
173
331
85
  5
1B0
331
C6
  5
16F
331
BA
  5
17B
331
BE
  5
177
331
F9
  5
13C
  0
DIMASSOC
  5
1B3
102
{ACAD_REACTORS
330
1B2
102
}
330
1B2
100
AcDbDimAssoc
330
1B1
 90
        2
 70
     0
 71
     0
  1
AcDbOsnapPointRef
 72
     1
331
1D9
 73
     2
 91
       14
 40
1.0
 10
0.0
 20
0.0
 30
2.000000000000000E+50
 75
     0
  0
DIMASSOC
  5
1C7
102
{ACAD_REACTORS
330
1C6
102
}
330
1C6
100
AcDbDimAssoc
330
1C5
 90
        3
 70
     0
 71
     0
  1
AcDbOsnapPointRef
 72
     1
331
1DB
 73
     2
 91
       13
 40
1.0
 10
0.0
 20
0.0
 30
2.000000000000000E+50
 75
     0
  1
AcDbOsnapPointRef
 72
     1
331
1D9
 73
     2
 91
       13
 40
1.0
 10
0.0
 20
0.0
 30
2.000000000000000E+50
 75
     0
  0
LAYOUT
  5
1B
102
{ACAD_XDICTIONARY
360
1C
102
}
102
{ACAD_REACTORS
330
13
102
}
330
13
100
AcDbPlotSettings
  1

  2
DWG To PDF.pc3
  4
UserDefinedMetric (210.00 x 297.00mm)
  6

 40
0.0
 41
0.0
 42
0.0
 43
0.0
 44
210.0
 45
297.0
 46
4.989053012076425
 47
4.989091686615864
 48
-173.8038769607747
 49
111.6485122851081
140
-95.97381434078192
141
223.2569118770836
142
1.0
143
1.0
 70
   676
 72
     1
 73
     0
 74
     1
  7
_RK Farben 1-15schwarz.ctb
 75
    16
147
0.9999999999999998
 76
     0
 77
     3
 78
   300
148
199.006201096346
149
1.008188852037164
100
AcDbLayout
  1
Detail_A4-hoch
 70
     1
 71
     1
 10
-203.9819184156641
 20
-5.96027866651113
 11
5.991409221054738
 21
290.9657162065358
 12
0.0
 22
0.0
 32
0.0
 14
-199.0
 24
-1.000000000000007
 34
0.0
 15
1.0
 25
286.0
 35
0.0
146
0.0
 13
0.0
 23
0.0
 33
0.0
 16
1.0
 26
0.0
 36
0.0
 17
0.0
 27
1.0
 37
0.0
 76
     0
330
17
1001
PLOTTRANSPARENCY
1071
        1
1001
ACAD_PSEXT
1000
DWG To PDF.pc3
1000
DWG To PDF
1000
Datei
1000
Robert Koch CAD-Support v6
1070
     0
  0
LAYOUT
  5
12
102
{ACAD_XDICTIONARY
360
14
102
}
102
{ACAD_REACTORS
330
13
102
}
330
13
100
AcDbPlotSettings
  1

  2
Snagit 13
  4
A4
  6

 40
6.000750064849853
 41
6.76275634765625
 42
7.77874755859375
 43
4.9847412109375
 44
209.9309997558594
 45
296.9259948730469
 46
1.888592989497738
 47
71.66498293661243
 48
3718.960329108144
 49
1480.405335044643
140
3860.808860549372
141
1672.779651198063
142
1.0
143
1.0
 70
 11940
 72
     1
 73
     1
 74
     4
  7
_RK Farben 1-15schwarz.ctb
 75
     0
147
1.019634564813647
 76
     0
 77
     2
 78
   300
148
-3718.960329108144
149
-1480.405335044643
100
AcDbLayout
  1
Model
 70
     1
 71
     0
 10
0.0
 20
0.0
 11
12.0
 21
9.0
 12
0.0
 22
0.0
 32
0.0
 14
0.0
 24
0.0
 34
0.0
 15
0.0
 25
0.0
 35
0.0
146
0.0
 13
0.0
 23
0.0
 33
0.0
 16
1.0
 26
0.0
 36
0.0
 17
0.0
 27
1.0
 37
0.0
 76
     0
330
2
331
2C
1001
ACAD_PSEXT
1000
Snagit 13
1000
Snagit 13 Printer
1000
C:\ProgramData\TechSmith\Snagit 13\PrinterPortFile
1000

1070
     0
1001
PLOTTRANSPARENCY
1071
        1
  0
MATERIAL
  5
46
102
{ACAD_REACTORS
330
D
102
}
330
D
100
AcDbMaterial
  1
ByBlock
 73
     1
 78
     1
172
     1
176
     1
270
     1
274
     1
 94
       63
  0
MATERIAL
  5
45
102
{ACAD_REACTORS
330
D
102
}
330
D
100
AcDbMaterial
  1
ByLayer
 73
     1
 78
     1
172
     1
176
     1
270
     1
274
     1
 94
       63
  0
MATERIAL
  5
C
102
{ACAD_XDICTIONARY
360
E
102
}
102
{ACAD_REACTORS
330
D
102
}
330
D
100
AcDbMaterial
  1
Global
 73
     1
 78
     1
172
     1
176
     1
270
     1
274
     1
 94
       63
  0
MLINESTYLE
  5
4F
102
{ACAD_REACTORS
330
43
102
}
330
43
100
AcDbMlineStyle
  2
STANDARD
 70
     0
  3

 62
     0
 51
90.0
 52
90.0
 71
     2
 49
0.5
 62
   256
  6
BYLAYER
 49
-0.5
 62
   256
  6
BYLAYER
  0
ACDBPLACEHOLDER
  5
9
102
{ACAD_REACTORS
330
A
102
}
330
A
  0
SCALE
  5
56
102
{ACAD_REACTORS
330
48
102
}
330
48
100
AcDbScale
 70
     0
300
1:1_Ebene1
140
1.0
141
1.000999999999999
290
     0
  0
SCALE
  5
57
102
{ACAD_REACTORS
330
48
102
}
330
48
100
AcDbScale
 70
     0
300
1:1_Ebene2
140
1.0
141
1.002
290
     0
  0
SCALE
  5
58
102
{ACAD_REACTORS
330
48
102
}
330
48
100
AcDbScale
 70
     0
300
1:1_Ebene3
140
1.0
141
1.002999999999999
290
     0
  0
SCALE
  5
59
102
{ACAD_REACTORS
330
48
102
}
330
48
100
AcDbScale
 70
     0
300
1:1_Ebene4
140
1.0
141
1.004
290
     0
  0
SCALE
  5
5A
102
{ACAD_REACTORS
330
48
102
}
330
48
100
AcDbScale
 70
     0
300
1:1_Ebene5
140
1.0
141
1.004999999999999
290
     0
  0
SCALE
  5
5B
102
{ACAD_REACTORS
330
48
102
}
330
48
100
AcDbScale
 70
     0
300
1:20_V3_ELEKTRO
140
1.0
141
20.011
290
     0
  0
SCALE
  5
5C
102
{ACAD_REACTORS
330
48
102
}
330
48
100
AcDbScale
 70
     0
300
1:20_V3_LÜFTUNG
140
1.0
141
20.012
290
     0
  0
SCALE
  5
5D
102
{ACAD_REACTORS
330
48
102
}
330
48
100
AcDbScale
 70
     0
300
1:20_V3_SANITÄR
140
1.0
141
20.013
290
     0
  0
SCALE
  5
5E
102
{ACAD_REACTORS
330
48
102
}
330
48
100
AcDbScale
 70
     0
300
1:1
140
1.0
141
1.0
290
     1
  0
SCALE
  5
5F
102
{ACAD_REACTORS
330
48
102
}
330
48
100
AcDbScale
 70
     0
300
1:2
140
1.0
141
2.0
290
     0
  0
SCALE
  5
60
102
{ACAD_REACTORS
330
48
102
}
330
48
100
AcDbScale
 70
     0
300
1:5
140
1.0
141
5.0
290
     0
  0
SCALE
  5
61
102
{ACAD_REACTORS
330
48
102
}
330
48
100
AcDbScale
 70
     0
300
1:10
140
1.0
141
10.0
290
     0
  0
SCALE
  5
62
102
{ACAD_REACTORS
330
48
102
}
330
48
100
AcDbScale
 70
     0
300
1:10_Ebene1
140
1.0
141
10.001
290
     0
  0
SCALE
  5
63
102
{ACAD_REACTORS
330
48
102
}
330
48
100
AcDbScale
 70
     0
300
1:10_Ebene2
140
1.0
141
10.002
290
     0
  0
SCALE
  5
64
102
{ACAD_REACTORS
330
48
102
}
330
48
100
AcDbScale
 70
     0
300
1:10_Ebene3
140
1.0
141
10.003
290
     0
  0
SCALE
  5
65
102
{ACAD_REACTORS
330
48
102
}
330
48
100
AcDbScale
 70
     0
300
1:10_Ebene4
140
1.0
141
10.004
290
     0
  0
SCALE
  5
66
102
{ACAD_REACTORS
330
48
102
}
330
48
100
AcDbScale
 70
     0
300
1:10_Ebene5
140
1.0
141
10.005
290
     0
  0
SCALE
  5
67
102
{ACAD_REACTORS
330
48
102
}
330
48
100
AcDbScale
 70
     0
300
1:15
140
1.0
141
15.0
290
     0
  0
SCALE
  5
68
102
{ACAD_REACTORS
330
48
102
}
330
48
100
AcDbScale
 70
     0
300
1:20
140
1.0
141
20.0
290
     0
  0
SCALE
  5
69
102
{ACAD_REACTORS
330
48
102
}
330
48
100
AcDbScale
 70
     0
300
1:20_Ebene1
140
1.0
141
20.001
290
     0
  0
SCALE
  5
6A
102
{ACAD_REACTORS
330
48
102
}
330
48
100
AcDbScale
 70
     0
300
1:20_Ebene2
140
1.0
141
20.002
290
     0
  0
SCALE
  5
6B
102
{ACAD_REACTORS
330
48
102
}
330
48
100
AcDbScale
 70
     0
300
1:20_Ebene3
140
1.0
141
20.003
290
     0
  0
SCALE
  5
6C
102
{ACAD_REACTORS
330
48
102
}
330
48
100
AcDbScale
 70
     0
300
1:20_Ebene4
140
1.0
141
20.004
290
     0
  0
SCALE
  5
6D
102
{ACAD_REACTORS
330
48
102
}
330
48
100
AcDbScale
 70
     0
300
1:20_Ebene5
140
1.0
141
20.005
290
     0
  0
SCALE
  5
6E
102
{ACAD_REACTORS
330
48
102
}
330
48
100
AcDbScale
 70
     0
300
1:25
140
1.0
141
25.0
290
     0
  0
SCALE
  5
6F
102
{ACAD_REACTORS
330
48
102
}
330
48
100
AcDbScale
 70
     0
300
1:30
140
1.0
141
30.0
290
     0
  0
SCALE
  5
70
102
{ACAD_REACTORS
330
48
102
}
330
48
100
AcDbScale
 70
     0
300
1:40
140
1.0
141
40.0
290
     0
  0
SCALE
  5
71
102
{ACAD_REACTORS
330
48
102
}
330
48
100
AcDbScale
 70
     0
300
1:50
140
1.0
141
50.0
290
     0
  0
SCALE
  5
72
102
{ACAD_REACTORS
330
48
102
}
330
48
100
AcDbScale
 70
     0
300
1:100
140
1.0
141
100.0
290
     0
  0
SCALE
  5
73
102
{ACAD_REACTORS
330
48
102
}
330
48
100
AcDbScale
 70
     0
300
1:200
140
1.0
141
200.0
290
     0
  0
SCALE
  5
74
102
{ACAD_REACTORS
330
48
102
}
330
48
100
AcDbScale
 70
     0
300
2:1
140
2.0
141
1.0
290
     0
  0
SCALE
  5
75
102
{ACAD_REACTORS
330
48
102
}
330
48
100
AcDbScale
 70
     0
300
10:1
140
10.0
141
1.0
290
     0
  0
TABLESTYLE
  5
50
102
{ACAD_XDICTIONARY
360
51
102
}
102
{ACAD_REACTORS
330
49
102
}
330
49
100
AcDbTableStyle
280
     0
  3
Standard
 70
     0
 71
     0
 40
1.5
 41
1.5
280
     0
281
     0
  7
STANDARD
140
2.5
170
     2
 62
   256
 63
     7
283
     0
 90
        4
 91
        0
  1

274
    -2
284
     1
 64
     0
275
    -2
285
     1
 65
     0
276
    -2
286
     1
 66
     0
277
    -2
287
     1
 67
     0
278
    -2
288
     1
 68
     0
279
    -2
289
     1
 69
     0
  7
STANDARD
140
4.0
170
     5
 62
   256
 63
     7
283
     0
 90
        4
 91
        0
  1

274
    -2
284
     1
 64
     0
275
    -2
285
     1
 65
     0
276
    -2
286
     1
 66
     0
277
    -2
287
     1
 67
     0
278
    -2
288
     1
 68
     0
279
    -2
289
     1
 69
     0
  7
STANDARD
140
3.5
170
     5
 62
   256
 63
     7
283
     0
 90
        4
 91
        0
  1

274
    -2
284
     1
 64
     0
275
    -2
285
     1
 65
     0
276
    -2
286
     1
 66
     0
277
    -2
287
     1
 67
     0
278
    -2
288
     1
 68
     0
279
    -2
289
     1
 69
     0
  0
TABLESTYLE
  5
54
102
{ACAD_XDICTIONARY
360
55
102
}
102
{ACAD_REACTORS
330
49
102
}
330
49
100
AcDbTableStyle
280
     0
  3
Standard
 70
     0
 71
     0
 40
1.25
 41
1.25
280
     0
281
     0
  7
STANDARD
140
2.0
170
     2
 62
     0
 63
     7
283
     0
 90
        4
 91
        0
  1

274
    -2
284
     1
 64
     0
275
    -2
285
     1
 65
     0
276
    -2
286
     1
 66
     0
277
    -2
287
     1
 67
     0
278
    -2
288
     1
 68
     0
279
    -2
289
     1
 69
     0
  7
STANDARD
140
3.0
170
     5
 62
     0
 63
     7
283
     0
 90
        4
 91
        0
  1

274
    -2
284
     1
 64
     0
275
    -2
285
     1
 65
     0
276
    -2
286
     1
 66
     0
277
    -2
287
     1
 67
     0
278
    -2
288
     1
 68
     0
279
    -2
289
     1
 69
     0
  7
STANDARD
140
2.5
170
     5
 62
     0
 63
     7
283
     0
 90
        4
 91
        0
  1

274
    -2
284
     1
 64
     0
275
    -2
285
     1
 65
     0
276
    -2
286
     1
 66
     0
277
    -2
287
     1
 67
     0
278
    -2
288
     1
 68
     0
279
    -2
289
     1
 69
     0
  0
VISUALSTYLE
  5
2D
102
{ACAD_REACTORS
330
2E
102
}
330
2E
100
AcDbVisualStyle
  2
2dWireframe
 70
     4
177
     3
291
     0
 70
    58
 90
        0
176
     1
 90
        2
176
     1
 90
        0
176
     1
 90
        0
176
     1
 40
0.6
176
     1
 40
30.0
176
     1
 62
     7
420
 16777215
176
     1
 90
        1
176
     1
 90
        4
176
     1
 62
     7
176
     1
 62
   257
176
     1
 90
        1
176
     1
 90
        1
176
     1
 40
1.0
176
     1
 90
        0
176
     1
 62
   257
176
     1
 40
1.0
176
     1
 90
        1
176
     1
 90
        6
176
     1
 90
        2
176
     1
 62
     7
176
     1
 90
        5
176
     1
 90
        0
176
     1
 90
        0
176
     1
290
     0
176
     1
 90
        1
176
     1
 40
0.0
176
     1
 90
        0
176
     1
290
     1
176
     1
290
     1
176
     1
290
     0
176
     1
290
     0
176
     1
290
     0
176
     1
290
     0
176
     1
290
     0
176
     1
290
     0
176
     1
290
     0
176
     1
 90
       50
176
     1
 40
0.0
176
     1
 40
1.0
176
     1
 90
        0
176
     1
 62
    18
420
        0
176
     1
 90
       50
176
     1
 90
        3
176
     1
 62
     5
420
      255
176
     1
290
     0
176
     1
 90
       50
176
     1
 90
       50
176
     1
 90
       50
176
     1
290
     0
176
     1
 90
       50
176
     1
 62
   256
176
     0
 40
1.0
176
     0
 90
        2
176
     1
  1
strokes_ogs.tif
176
     1
290
     0
176
     1
 40
1.0
176
     1
 40
1.0
176
     1
  0
VISUALSTYLE
  5
53
102
{ACAD_REACTORS
330
2E
102
}
330
2E
100
AcDbVisualStyle
  2
3dWireframe
 70
     5
177
     3
291
     0
 70
    58
 90
        0
176
     1
 90
        2
176
     1
 90
        0
176
     1
 90
        0
176
     1
 40
0.6
176
     1
 40
30.0
176
     1
 62
     7
420
 16777215
176
     1
 90
        1
176
     1
 90
        4
176
     1
 62
     7
176
     1
 62
   257
176
     1
 90
        1
176
     1
 90
        1
176
     1
 40
1.0
176
     1
 90
        0
176
     1
 62
   257
176
     1
 40
1.0
176
     1
 90
        1
176
     1
 90
        6
176
     1
 90
        2
176
     1
 62
     7
176
     1
 90
        5
176
     1
 90
        0
176
     1
 90
        0
176
     1
290
     0
176
     1
 90
        1
176
     1
 40
0.0
176
     1
 90
        0
176
     1
290
     0
176
     1
290
     1
176
     1
290
     1
176
     1
290
     0
176
     1
290
     0
176
     1
290
     0
176
     1
290
     0
176
     1
290
     0
176
     1
290
     0
176
     1
 90
       50
176
     1
 40
0.0
176
     1
 40
1.0
176
     1
 90
        0
176
     1
 62
    18
420
        0
176
     1
 90
       50
176
     1
 90
        3
176
     1
 62
     5
420
      255
176
     1
290
     0
176
     1
 90
       50
176
     1
 90
       50
176
     1
 90
       50
176
     1
290
     0
176
     1
 90
       50
176
     1
 62
   256
176
     0
 40
1.0
176
     0
 90
        2
176
     1
  1
strokes_ogs.tif
176
     1
290
     0
176
     1
 40
1.0
176
     1
 40
1.0
176
     1
  0
VISUALSTYLE
  5
52
102
{ACAD_REACTORS
330
2E
102
}
330
2E
100
AcDbVisualStyle
  2
Realistic
 70
     8
177
     3
291
     0
 70
    58
 90
        2
176
     1
 90
        2
176
     1
 90
        0
176
     1
 90
        0
176
     1
 40
0.6
176
     1
 40
30.0
176
     1
 62
     7
420
 16777215
176
     1
 90
        1
176
     1
 90
        0
176
     1
 62
     7
176
     1
 62
   257
176
     1
 90
        1
176
     1
 90
        1
176
     1
 40
1.0
176
     1
 90
        8
176
     1
 62
     8
420
  7895160
176
     1
 40
1.0
176
     1
 90
        1
176
     1
 90
        6
176
     1
 90
        2
176
     1
 62
     7
176
     1
 90
        5
176
     1
 90
        0
176
     1
 90
        0
176
     1
290
     0
176
     1
 90
       13
176
     1
 40
0.0
176
     1
 90
        0
176
     1
290
     0
176
     1
290
     1
176
     1
290
     1
176
     1
290
     0
176
     1
290
     0
176
     1
290
     0
176
     1
290
     0
176
     1
290
     0
176
     1
290
     0
176
     1
 90
       50
176
     1
 40
0.0
176
     1
 40
1.0
176
     1
 90
        0
176
     1
 62
    18
420
        0
176
     1
 90
       50
176
     1
 90
        3
176
     1
 62
     5
420
      255
176
     1
290
     0
176
     1
 90
       50
176
     1
 90
       50
176
     1
 90
       50
176
     1
290
     0
176
     1
 90
       50
176
     1
 62
   256
176
     0
 40
1.0
176
     0
 90
        2
176
     1
  1
strokes_ogs.tif
176
     1
290
     0
176
     1
 40
1.0
176
     1
 40
1.0
176
     1
  0
DICTIONARYVAR
  5
1E5
102
{ACAD_REACTORS
330
1DF
102
}
330
1DF
100
DictionaryVariables
280
     0
  1
1:1
  0
DICTIONARYVAR
  5
1E1
102
{ACAD_REACTORS
330
1DF
102
}
330
1DF
100
DictionaryVariables
280
     0
  1
STANDARD
  0
DICTIONARYVAR
  5
1E0
102
{ACAD_REACTORS
330
1DF
102
}
330
1DF
100
DictionaryVariables
280
     0
  1
RK Menü 1
  0
DICTIONARYVAR
  5
1E2
102
{ACAD_REACTORS
330
1DF
102
}
330
1DF
100
DictionaryVariables
280
     0
  1

  0
DICTIONARYVAR
  5
1E3
102
{ACAD_REACTORS
330
1DF
102
}
330
1DF
100
DictionaryVariables
280
     0
  1

  0
DICTIONARYVAR
  5
1E7
102
{ACAD_REACTORS
330
1DF
102
}
330
1DF
100
DictionaryVariables
280
     0
  1
1
  0
DICTIONARYVAR
  5
1E8
102
{ACAD_REACTORS
330
1DF
102
}
330
1DF
100
DictionaryVariables
280
     0
  1
15
  0
DICTIONARYVAR
  5
1E6
102
{ACAD_REACTORS
330
1DF
102
}
330
1DF
100
DictionaryVariables
280
     0
  1
0
  0
DICTIONARYVAR
  5
1E4
102
{ACAD_REACTORS
330
1DF
102
}
330
1DF
100
DictionaryVariables
280
     0
  1
0
  0
DICTIONARY
  5
1C
330
1B
100
AcDbDictionary
280
     1
281
     1
  0
DICTIONARY
  5
14
330
12
100
AcDbDictionary
280
     1
281
     1
  0
DICTIONARY
  5
E
330
C
100
AcDbDictionary
280
     1
281
     1
  3
FBXASSET
360
F
  0
DICTIONARY
  5
51
330
50
100
AcDbDictionary
280
     1
281
     1
  3
ACAD_ROUNDTRIP_2008_TABLESTYLE_CELLSTYLEMAP
360
1E9
  0
DICTIONARY
  5
55
330
54
100
AcDbDictionary
280
     1
281
     1
  3
ACAD_ROUNDTRIP_2008_TABLESTYLE_CELLSTYLEMAP
360
1EA
  0
XRECORD
  5
F
102
{ACAD_REACTORS
330
E
102
}
330
E
100
AcDbXrecord
280
     1
 70
     1
 90
2070111275
 71
     1
  1
7DF25468-CECC-494C-852B-98270A83ADF0
311
504B0304140006080800A75E6F453CC2A371D9000000200100004F00000030303433414237312D323041452D343733382D383645332D4434464544383132323638392F4173736574446174612F446566696E6974696F6E4974657261746F7250726F706572746965732E62696E454E3D6FC23010351D5A75E8C03F40ECC671
311
6C23110195121226BA94A90B3A9C83467212142752C78EFDD7ED590571D2BB779FEFEE8731F67B350AD988F04DFE85788B0D76957DB79F58037B0C15D71EC13DDD7B0F1486748327185C1FB67695B7E81C34D80E7E7C1F9DD4D0931CB859587A26DC0A3E289CFF8F85FB6F84F05260282FC92B788FFD4A9C8E5F42653A5779
311
A1792AB382EB6833E7693A573CCB172ACECDC26853880E7D3B7416BD884574B82A1F2ECDB92AD7CBBEAA71D2408DABA9ED907E2AA7EB38929A4BC9A5D94B99189548F3B11461F20F504B0304140006080800A75E6F45D804EB7C00010000300200004500000030303433414237312D323041452D343733382D383645332D44
311
34464544383132323638392F4173736574446174612F496E7374616E636550726F706572746965732E62696EEB606060F80F0540260323103700495E20ED9E9A975A94991C9C9C919A9BA8021430777133323531B3D075767576D635B13471D6B5303572D2B5B430323770B43076747133604768046931363471713532B5D4
311
35353131D635313332D475727372D13534373670367376B67474B5042A03DBCBA019D37FE8ABC6157B20CD04146B0062181F4C03F940F0C11EA29A8141C08141002C0426541C106CAC2CA046088033B02A030AC2157C6006F21A8018AAF50194E6010A610250382264E08660284CD9E98021862280A91564B406929A0FF62C
311
401E28B6F88038B83CB1243943D7A928312F2535052403520FA4E000C4E7807805AC4B0E2AA30A5781CAC0A51F00504B0304140006080800A75E6F4528BB58AF800100009E0500003D00000030303433414237312D323041452D343733382D383645332D4434464544383132323638392F536368656D61732F436F6D6D6F6E
311
536368656D612E786D6CBD544D4FC23018BEFB2B96DE15493C78601010A34B880709DEDFB52FD0D8B54BD70DF6EFED3AC0B12E6442E2716BFB3CEFF3D18E26FB440405EA8C2B1992E1C323095052C5B8DC842437EBFB673219DF8DA659866649B798C078B48AE6410122242F2A4994AC7F93815DF85C049C8564CA0A901499
311
DD886B2EB9B1E02448F358701A9235880C49A0119892A20C89D1B9FD768815CAD268CB5E0355B40B1E47F3E37A2020464BED06AA57CE8FCC20C3C3446D46761A2632A8C1283D07031EFF2AE7CCB1BFEEE916E406DFAC8E36FFD99A9D60A6944090EEDC3B670C7DC13DE86B6B2C5C240D6E503BB85ACD579D513F1B9F9A69DC
311
9CC22AFA80C426D40AF0B21EA168559156B6276F0F726A6BFF04DCD513A87A62CAD41FB24FCB2858B3952E3D852084DA25B9303C15687973CC8E8AAE11DF2836C38C6A9E765E8C1BA1BFB1DC29CDFE518C8B5A7655A4ED7E77291ABEB80DBD82EC866ADE1B8D05AF9E35CF09D7A061F38A986D9EC412B8F0F65E5D81534D9B
311
231D1E5A8FE577A241F3A5FD01504B0304140006080800A75E6F452CCEBD668A040000E01200003E00000030303433414237312D323041452D343733382D383645332D4434464544383132323638392F536368656D61732F47656E65726963536368656D612E786D6CD5586D6FDB380CFE7EBF42F0F7A649B70E1B90744856
311
B4970F450FCD7A5F05459613EDE4174872DADCAF3F522F8ED3B88D2F1D06AC4050DBA2493EE4438AF2F8EB73AEC8466823CB62928C06C384888297A92C5693A4B6D9D9E7E4EBD51FE3A931C22EF85AE4EC6AFC38BF261BA626C9AD288496DC3F4FCEAFC63366845F7A10452AF41DB320C0D44EC26EAB209187355655826956
311
70811A6A49643A49A6E9069FA4604A64B29016DC4B48552F95E4932463CA888468C1D2B250DB4962750DF7CE273069CE8363F1FF4EDB00E0A21999574AE4A2B00C353B93F3BD4777B8A61ED8F604ABFEDD79CE56A2B7BDFBDBC50996E0ADDE16FED26223C5D30956C29BDF4A55EA686E5E58B112DA45CE67F76F4FA27EFA3F
311
B672FD7372FC388FAECDCA5209E693CAD167BADCD272F943701B3812F8A3D852008B1D2E32DB927B2F833C6EA95879925356D254582695095A3CE982924720BE5774A3CB9CDCDB350427D2DF20DA1B5532EBE2D5D6288D75D4F7E4FD9890A0EF8E3D93EBB8F8BA4758158EF6FB90A6F9520281C93DE7AAC6D24607DA296BB9
311
6018123F821A7D6A5C5884050C475DA4865442732C8B95684A50165CBB3A32F25F783A4A480ED59AD7F924B968AEA50131F46303223E6A397B0E52976030DC1DCA81D7E7C1EDEEA42C19FF27635C505E2BD5198A599020DF50A2330FCB3AAF28CB0124108429553EF1B228802E2265D8F7CC2401042B155BCC7070F1E5C55F
311
13B4A9577362CCCE46C32174E010C3C378C44841A4BDA00FE3A12006CE11EE6AEC59894D3526DDE1CD59D503ECC324017F8061B7F162162FA62EDD81AE3308617770796DCBDAD2B2625C5AE8A63DE20B2C8AA5E95E76E5730823955956E33E705425A2187C185D36489A1B44D3DCEC2172F6BA2105C3546287A7194B233176
311
8EBBE64F6E70A9930ABE0ADEA89E9E2C38523B810287AD67A54A039C1606EAFE68F8304610BB9093DBDDABC0B2AE4E290DCDA15376D7E39F72B556F0B32EAB5D3D498B4C41ABADEC3A1434C422D87E8025A84BDCB2B1417ED750FAE4DA8976863974C577C7F902D3F156AD354DEA3540DE6BEAE2BEA52F7A2EB4CA43802ECE
311
5BF2CE2EDC9347179FFB023CE412E60BE16DA0BE29B374988A553F561DC04615DD35F7D2C8979F60E5955CE93DF29DED8AFA1EE6642D53418086C03C47C377910F75F7E8F5EF665F70B60FFB22AEDF897D119E8423C773E819A3C1E55E550599EE6EDCA34D0C86FD72057DF2CD46F16A470682471C164E4346D5306BF12D7D
311
12D82CFF673D41636C347443FEB51B50D72EA171A8E4A58623A4A16E0FA2B8B10A0D23268D87C33896EE8FB73305A74BF224EDBADFA0BD674AB354D63DB7BD5D83426761C077DE767728235446A552754EB93B755891C3C4CC6CADE37CF0E912A7BB38DBA010F9DE1282EDF470CA69A9CDA482E334C4A6EA4107987980B17E
311
72F31730EBF88BBD39E7C629F56797A3C0009C2C5AE7951D9A05A02773440F02EEB4DE396A3B6A570C72CCFBCD823B0B8ED3F1D5CEDDFED772FA70236C83FB7D86C385D570B87107535572A60A96035F8F7C6A7192F13007246BBE0521855E6AC46F3E27689CEE7D186A6FD679D98CDCAD13333E04EBE7ED6F55FF01504B03
311
04140006080800A75E6F456180134D5F0100006B0300004500000030303433414237312D323041452D343733382D383645332D4434464544383132323638392F536368656D61732F52656E6465724D6174657269616C536368656D612E786D6CA5934D6FC2300C86EFFB1551EEE343DBA41D1A103009551ADAD40EAE28A4A6
311
8D9426284961FCFBE5A340113B2071746D3F765EBF4DC6BFB5407BD0862B49F0B037C0082453059725C18DDD3EBFE3F1E829991803366715D474942CD30FB4A782E00C64017A412D684E454CE3FE28995203B162A6EA5AC94B66997D225E109CD63B0135484BAD1B3C07E9080CA35DB3119C11BCA5C200461A68A1A438126C
311
75E3E230D40FF81FB3F03C91D1E3A3A0AF79FE28E25BC39EC3E17E4C2A2D94A0833A51AF55BCCA7D88572FCBAC529C4140B020FC3AAFA886621DCED7EAD7664CC86024E806DC297DA1BB393E4156543457A4537DB8817349A70F8ACBF09B3EEE2CB2F33E91B65D60786E4E3B39B77E3FEEEF5650424525DA657FB8B46BE6BF
311
064646F0A0F7327C0BC1BC1B4CBBC1C419FA3CCB23500007872A2580CAAE5461865565294E4EDB4617B62FF579DF9A5B2F54E834076A597573A020912FED777F9B3F504B0304140006080800A75E6F45D621868A51000000570000004700000030303433414237312D323041452D343733382D383645332D44344645443831
311
32323638392F4173736574446174612F41737365745461626C654F66436F6E74656E74732E62696E5361606030777133323531B3D075767576D635B13471D6B5303572D2B5B430323770B430767471331002AACB4D2C492DCA4CCC492C28484D2C4ACC4B4E050A82012F90744FCD03CA26072767A4E6260200504B03041400
311
06080800A75E6F45F865834058000000680000004500000030303433414237312D323041452D343733382D383645332D4434464544383132323638392F4173736574446174612F53747265616D56657273696F6E5461626C652E696E66558CBD0A80300C06F73E4B117FB66E451741D041DC5BF98480A492E4FDD18EAEC7DD
311
4555D89EF28DF51A0B1BD8340C4DE7DD848B988C0ACF0649566493F2408C508DDEBB99D5129FF8F1AF8CF5B9503E20FAE5A16B5AF702504B0304140006080800A75E6F45E61D920B340100009A0400003600000030303433414237312D323041452D343733382D383645332D4434464544383132323638392F417373657444
311
6174612F636E782E786D6CCD94314FC3301085FF4AE43D760D544295E30AC1D209242A06B6AB7369AD3A76645F10FC7BEC3403A888A943D7F3BBF3F327BF53EBCFDE551F18930DBE61922F5885DE84D6FA7DC346EAEA7B56ADB58A21D00F19AB3CF4D8B052665AED631887B9D46207A32B5567FD712E3EA484B4859DC3E7EE
311
3178424F8955C6414A0D4BE6803D701829B4988EBC05022E79C414C668304F22DBE33CC94404C296E99B85BCABA5ACE5722BE56A79BB92CB77258A52AB5D086ED6DB7C590C43654EB732BD50A21C6B35463B6BCA5B98FECB23DF59AF44566A9528662673077D0DB90386C1590394D1896008A9CE22845E8993582B5118FC22
311
F1849DF5B6B46CB231A0105FB23D8C64F1EA88FCE7F5F264363E117883D7CBE3DCE1E529BC4E3FE8ED14C82931D796937387DCFAEE022911D31AC9A1295B457F03504B0304140006080800A75E6F450646A495070100004F0300003400000030303433414237312D323041452D343733382D383645332D4434464544383132
311
323638392F536368656D61732F636E782E786D6CCD93314F04211484FF0AA13F58D44DCC85E50A0B2B1BB5B2437877470E781B608DFE7B61A5B84BECB4B80E862F646678C8DD67F0E403527618272AD840094483D6C5C34497B2DFDC53B253322196338C92A8034CB4C954C943C265EE9285BD5E7C53BD8BA72E3E6008185F
311
CC1182A6C4789DF344F3BA657A2968219F98D54533C112645C92817A437101FA0D26812E60A9BA19C4DD46888D185F85D88EB75B31BE49DE4825DF117DE75D2C90702606EB22563B83E4ED58C925B9CEB40C549D7B63B50DC92BA1642EA976D0C9F2355752CFB37746975A155FC11F4649DEA25E047E8408C999EB4C7C61EE
311
DF223F43B4909EEA2B25A7FD7526FFCDE3DF0AE0EBECD711685F417D03504B0304140006080800A75E6F45410A3D5871000000A40000002C00000030303433414237312D323041452D343733382D383645332D4434464544383132323638392F636E782E786D6C55CC4D0E82301086E1AB34B31774E7A22D31F1069E600203
311
34B633A63FC6E34B0909B07DDE2F9FEE7EC1AB2FC5E4840DDC9A2B28E25E06C7938192C7CB1D54677514C9871928C640062A83D55394F2D968A0118BAFEA1DBF377CA444F98919176EAB9FEAAB9F2960DA5BBB1E2ED3FA6FFF504B0304140006080800A75E6F451DF173DC7E000000A300000007000000636E782E786D6C4D
311
8CDF0AC2201C465F457EF796FFD80CD4B198BDC7686E489B86CDE8F1D3D845571F1CBE7354F7D956F476E9E563D0404F04900BF738F9B068C8FB8C25A0CEA814E3FE770314C6CD69A8188C5A52CCCF034D6E1EF35AE9EAC3E3808408DE5F5B8A19E92D162D97583696E341DCEC2029638DBC14E35C9532BF5ED99A375F504B
311
0304140006080800A75E6F4516E99B5DA600000035010000130000005B436F6E74656E745F54797065735D2E786D6C9590410E82301045AFD2740F4517C6180A0BF5065E60AC53688469D30E066F6F91AD9AB89CF9FFFD3F99BA9DC7413C3026E749CB4D59498164FCCD51A7E5C4B6D84BD136F5E5193089ECA5A465CF1C0E
311
4A25D3E308A9F401292BD6C711388FB15301CC1D3A54DBAADA29E38991B8E0254336F5092D4C038BF39CD76B6FC6A538AEBEA54A4B08617006389FA516557DE4AE8E7E70DE30729138228C5F021CD93F02D4FB0DCD0B504B0304140006080800A75E6F453DEE336E64000000790000001B0000006175746F6465736B2D6465
311
7369676E2D7061636B6167652E786D6C35CBC10E83200C00D05F21DCA56CA76D41FC96062B120735B69A7DBE268BB7777961F8D5AF396893C2ADB70FE7ADA196782C2DF776D7A97B5933C430F15651E5469C55D70F80A4992A3ADC954792C525AE70A1E4D6AD9816CC044FEFDF01FE3FDE907802504B0304140006080800A7
311
5E6F455B417041F7000000960100003700000030303433414237312D323041452D343733382D383645332D4434464544383132323638392F4173736574446174612F636F72652E786D6C8550CB6EC32010FC156BEFD8C106378E3091A3F40F7AEA0D01715162B07854FDFC42EC4AEDA9A75DCDCECCEE0E3B7F2D8FEA53FB60
311
9C1D01D707A8B4954E193B8F90E20D1DA13A73E69D8BBF685059B1E8110A0C9CCDDEA57587A4B351DB825AA7F40E8A1074844A3E723342901F7A11B5483133C2BD5E85BC8B59D7B8DE789CA564D42E352ABB999BD11E38212D19F040D0855E3B44A6AE47C3D40D68A0B87FEDE9CBA52747D6143167D12C3FDBA5D7226A05BC
311
3D6082304698BE617CA2DD09D377D614266721FAFCF3BEB47C077C2A575F4514ACD9A67F5CD3AAFE774DC6C6AEDD5D3745008EF391CF01674D4929976784B99644F937504B0304140006080800A75E6F458CB8B5F3F6000000940100003500000030303433414237312D323041452D343733382D383645332D443446454438
311
3132323638392F536368656D61732F636F72652E786D6C8550CB6EC32010FC156BEFD8C106378E3051A2F60BDA536F08888B1283C5A3EAE7176C576A4F3DED6A76667677D8F96B7E549FDA07E3EC08B83E40A5AD74CAD86984146FE808D59933EF5CFC4583CA8A598F5060E06CF22E2D3B249D8DDA16D43AA5775084A02354
311
F2919B1182FCD0B3A8458A9911EEF522E45D4CBAC6F5C6E32C25A376A951D9CDDC8CF6C00969C9800782AEF4B943E4D2F568B874031A28EE5F7AFA74EDC9913545CC5934F3CF76E9B5885A016F0F98208C11A66F189F6877C2F49D3585C959883EFFBC2F2DDF017F5DEF0CACD9667F3CD3A2FEF74CC6C6AEDD3D3745008EF3
311
89EB80B3A66494CB1A60AE254FFE0D504B0304140006080800A75E6F45CC10114902010000D70100002D00000030303433414237312D323041452D343733382D383645332D4434464544383132323638392F636F72652E786D6C9591CB4EC33010457F259ABD93388F36548EABA2862F60C5CEC4D3D46A63477E203E1F9B04
311
013B58D9BA3E77C677861DDFE77BF686D629A37BA0790919EAD148A5A71E82BF900EB22367D618FF03834C8B197B483270365913964D1A8DF6A893AA8DC44D14CEA1876CBCC74B0F6EBCE22C72117C24DC2D5FC4781313E6345F39CEBC9ABFACA345E15102AF4ADA104A096D9F293DB4F581B62FAC48246741695F575B339C
311
5F516666F13112F09615EB6BA482921BA364FCA3BA28B4C0CBB2A94F8F7B4AAAF23490665F77A4DB0D3539374FC3B9A355B5EB1E629168E6CC791B27B3154933F8AB7D35FE4A1616F9CF64ABC301A7DFA18A3466CE8ACF1DC433AD847F00504B0304140006080800A75E6F45A590D18906010000B201000008000000636F72
311
652E786D6C8D50416EC32010FC0ADA3BB6B1C18D234C94A8FD414FBD51435C141B2C0351FBFB42EC4AEDADA74533B33BC3F0D3E73CA1BB5EBD71B607525480B41D9C3276EC21862B3E003A09BE3A177EC9005939EB1E320C828FAB8BCB0E0DCE066D336A9DD23B28BDD701D030A5470F7EF8D0B32C640C49E16FC522879B1C
311
75418A4D277830F3CFEAB06A19B40251578462423061AF841C597324EC8D975929788C46ED5646257773357A0541694D3BD2517C61CF0DA6E7A6C5DDB9E970C748FBD2B2A74B4B0FBCCCCB82FBB0A63FEF4752CE80BCBC675F5E6E94E0EFCE4DBB208552C8D9E90B44C5CB4CFC091D17F58FD0C686A6DE0F6E1B1E0449811E
311
4432CE0DA6F1A837CDDCB6F806504B01021400140006080800A75E6F453CC2A371D9000000200100004F000000000000000000000000000000000030303433414237312D323041452D343733382D383645332D4434464544383132323638392F4173736574446174612F446566696E6974696F6E4974657261746F7250726F
311
706572746965732E62696E504B01021400140006080800A75E6F45D804EB7C000100003002000045000000000000000000000000004601000030303433414237312D323041452D343733382D383645332D4434464544383132323638392F4173736574446174612F496E7374616E636550726F706572746965732E62696E50
311
4B01021400140006080800A75E6F4528BB58AF800100009E0500003D00000000000000000000000000A902000030303433414237312D323041452D343733382D383645332D4434464544383132323638392F536368656D61732F436F6D6D6F6E536368656D612E786D6C504B01021400140006080800A75E6F452CCEBD668A
311
040000E01200003E000000000000000000000000008404000030303433414237312D323041452D343733382D383645332D4434464544383132323638392F536368656D61732F47656E65726963536368656D612E786D6C504B01021400140006080800A75E6F456180134D5F0100006B030000450000000000000000000000
311
00006A09000030303433414237312D323041452D343733382D383645332D4434464544383132323638392F536368656D61732F52656E6465724D6174657269616C536368656D612E786D6C504B01021400140006080800A75E6F45D621868A510000005700000047000000000000000000000000002C0B0000303034334142
311
37312D323041452D343733382D383645332D4434464544383132323638392F4173736574446174612F41737365745461626C654F66436F6E74656E74732E62696E504B01021400140006080800A75E6F45F865834058000000680000004500000000000000000000000000E20B000030303433414237312D323041452D3437
311
33382D383645332D4434464544383132323638392F4173736574446174612F53747265616D56657273696F6E5461626C652E696E66504B01021400140006080800A75E6F45E61D920B340100009A04000036000000000000000000000000009D0C000030303433414237312D323041452D343733382D383645332D44344645
311
44383132323638392F4173736574446174612F636E782E786D6C504B01021400140006080800A75E6F450646A495070100004F0300003400000000000000000000000000250E000030303433414237312D323041452D343733382D383645332D4434464544383132323638392F536368656D61732F636E782E786D6C504B01
311
021400140006080800A75E6F45410A3D5871000000A40000002C000000000000000000000000007E0F000030303433414237312D323041452D343733382D383645332D4434464544383132323638392F636E782E786D6C504B01021400140006080800A75E6F451DF173DC7E000000A3000000070000000000000000000000
311
000039100000636E782E786D6C504B01021400140006080800A75E6F4516E99B5DA6000000350100001300000000000000000000000000DC1000005B436F6E74656E745F54797065735D2E786D6C504B01021400140006080800A75E6F453DEE336E64000000790000001B00000000000000000000000000B3110000617574
311
6F6465736B2D64657369676E2D7061636B6167652E786D6C504B01021400140006080800A75E6F455B417041F70000009601000037000000000000000000000000005012000030303433414237312D323041452D343733382D383645332D4434464544383132323638392F4173736574446174612F636F72652E786D6C504B
311
01021400140006080800A75E6F458CB8B5F3F60000009401000035000000000000000000000000009C13000030303433414237312D323041452D343733382D383645332D4434464544383132323638392F536368656D61732F636F72652E786D6C504B01021400140006080800A75E6F45CC10114902010000D70100002D00
311
000000000000000000000000E514000030303433414237312D323041452D343733382D383645332D4434464544383132323638392F636F72652E786D6C504B01021400140006080800A75E6F45A590D18906010000B2010000080000000000000000000000000032160000636F72652E786D6C504B05060000000011001100
311
5A0600005E1700000000
310
504B0304140006080800A75E6F45000000000000000000000000370000006662782F37463041324144352D453238412D343044372D393242412D3034384432413245373641382F617474726962757465732E62696E504B0304140006080800A75E6F45000000000000000000000000350000006662782F3746304132414435
310
2D453238412D343044372D393242412D3034384432413245373641382F76657274696365732E62696E504B0304140006080800A75E6F45F270F1330600000004000000360000006662782F37463041324144352D453238412D343044372D393242412D3034384432413245373641382F747269616E676C65732E62696E6366
310
60600000504B0304140006080800A75E6F4551464CB48900000043010000360000006662782F37463041324144352D453238412D343044372D393242412D3034384432413245373641382F6469726563746F72792E786D6C9D8F310EC2300C45AF127987122606C71DD918B841D4B851A43646695A717C52A85029031293A5
310
A76FBF6FACEF7DA7264E43906840EF0FA03836E242F406C6DCEE4EA06AC22492573150D1F66C60C640E8938CB705396EEDD86DE9B5042FE27813D640EA63BB001C722AF6E55CB61E4863F58284D5D3F53DD715CE1C3985E63FD7F1B7EBDD617E9F1E504B0304140006080800A75E6F454F02056E3E070000201C0000340000
310
006662782F37463041324144352D453238412D343044372D393242412D3034384432413245373641382F6F626A656374732E786D6CDD595B6FE23814FE2B56F665F721242140614419B5504668D499D1A059ED5B6482A1DE3A1739494BF7D7EFB16387380D90CE455A6D2B15EAD8C7E77CE77E327D7F88187A223CA3497C6D
310
793DD742240E932D8DF7D75691EFECB185DECFD09427495EDB67A11847E4DA12CBD66CBAE74991AAA52DD9E182355797B77FA12C2431B150C870965D5B59F84022DCC3459E6C49F6D8DBE21CF7F6BB43CFEB951B4DB27B8ED387C65529E624CE8155588F818AE2C033FF05919CD9D4111B8C6D7EB76DFD33DB1C29B8C9288D
310
B31CC7E12BAE1AD7F54F70D5B8CEF7068BBBFE70620F0703DF1E8CFA9E7DBBBC5DD8DE95EFCE47F3F9E4E66E62A1D9749324AC52404AE22D68F1C59A7953473CA9C45728B4F11D26714C428566DB862D517429C99A9818C07A52B49A424A596B0B7E47E14F6CEB048AC19281B6164E7FD6AD37D9FC0D20645DAC9467445879
310
9673D0B5C2BEF40777EA94AB865E6886229C134E31438C6E38E6A020D85A2AC82023BC4590420233A9454DAFCE2B18F6655F6AE372573026FCD79A494F0BC01F499E49CEE83F841FB9AFDF063C81B4058DF3B112367F4981C464EAC8C5F299DF570F4B20D18EE13D580B882936F9FD065E73110B560B6BF671B939AC457C68
310
BF3CE5494A782E2C4F3AB3F23BADC19A6981F17500A5C4D5D4DD1195AF00FD2740BEE2054D41739C1E068781969DE338DB253C02ED2017D92EFC7191F8FAEADBD4A90ECF103262E5294CC16D7F12A68618C6DD354867D32730FA84FB4AB8758819D8F43D8D859F83A12096C012C4FBDDE660CD56104C61114E6106D2C3EFD4
310
115F117C947420DE3434D4167E3B284A3B4CD3CF8EBAFA0036C36958A9CA90F114BEC39F82EFCD62FD715DF01D0EC9BD72EC05D9D198E6904CDB193240375CFEDBEA93F4C80F2CD960763C6D6C0AE19A7D22E2468B5AD64A2D48EA05381169B8D48C5CB9A7E0ED8CE1982445A6D6DBE25498B084079B97A074E1D6BBFED436
310
505EA60CA0359641720F394D0526D64C69AB0A84BD9AA06061982B0BDC975A0D36459406384A8A5884DAD7A6D8E403E28CB044A02AA969C3D65EABC96EE96E576410BC5A49CE0D20953F6BC2A5850F208EB5F1CBC98E6348A2491C50C8C1E02CAD37181754E09DE739236C1750C68A28D85106792488707A827E4709EA99EB
310
91BC3C277CDB4AD0B42CED93DA8604E00A580D92CE5665CC573AE5E4898A3253E6339D0D8C1DAA0EB5668313E942648A1640B5314A33BF5A2CFBC3C1686CCFEFE6737B3019CCEDF1B07F6B4FC6FD2BF766ECDF2C96472B91081CA3553DDF812A459963F85FFE50449B1853060F84D8789BBE7B2FB3E7B503A1D1F1E7833BFF
310
6E39B06FBDF9D21EB88B917D7B3BF2819589DFBF1B4E8683E1D2E1244B0A1E92CCE93B6EA04D328DF74DF42EC750286B2E273BADAFA630FFE318DACC098612FFAB41B4B2CA9682B06B1015479B2114878F22450521547DADEED308A24D3EDAE2DC1BE3B2DBF35DF9E37993BE3BE98F27A3CAD8CF066A79CF0FC7B9360942E8
310
3B8B3C48521CD2BC3DA13670E918A7DF945B7ABE3744804EF5B7BAE47C9E51970434C27B12ECB0E8125A02E325095A73D89E2559466392C92EEF55F5D7A0E9F6A09832736E8B11D22C88488EBFC7FE64DBD0B06988CD2C807E341713818B554165D0AA0339455174BF90B8A5FC2F4186A394959DEE250CBCBE8640F7386D16
310
279816573C81BD05380FDC2D91838B4BD42BF6757DD0AAB526F5C977933F018FAE6B7E213CFA8AEEA5536FE84DC4CF1882CA68E8F9575A1197B0D257E5A28F6305749EE14BF04CE8FEA153A1D94D27B592AD2CAA7312411B8BF38277F2D7D1D07D75918A0B0D87A8DDF4C6E250F66FBA8303F4640377AABCAD5D0375288D61
310
CED549905752B49AB0D4859CE989D1D51BFCFAACB2EB547F385EFEF28AB9EE7C911CFE5CC601AAE53200ABE863D4D4AD55B7510F65CF380F2190AEE5A77D0B1EB125DB636366906B2BD1759D7AA97A5E89801AC1C4168B387B2FBEB0AF18540DDD73E67C288B36A75C5F89C4D683E1F4910F836993D6E70FEB061558E97CFA
310
8BC0883C3728A8D5B9E886CF90FAB63AF6FC0D0A4AA26FAB33C7FF131D8556606D8C06D3E02C611486F2648BF62481EC0D63870EDD068F4826B33218AF0A52FA8D4087D34FE54C35C71BA64F870F1806D34CF56245084351C898D7965A47BFC118544C22E570AAF7086D988A61162A38BDB6C062730ADD566F03E32C393C94
310
D41BE34A706C1CEF45BE2F4F55FF1F8F0974202A1DE5AAF674C1454966381314B6A97C4F00555FF96036FD7ED1353B08E7F07553E49530C785A3340A04FD42A0140EA67E8F0ADE031414E7E5F27A728F0149A7C9FC593B28A9DA39E67B395EAFE17DB3F8E288C9F8EA334A59B117EA3CD7FD1A946CD175B3A29C424DC13094
310
98291635E4FC9DF38527F08A29424B0A46807E3F8C477F38F3248A92B85C726ED48B2AB47E80D74E5B478FFCA08D77BDA123A7006AAC1F6C70467A789B3DC202A89653311B2D21360CA08AA63503D01A11BA8063C6FED502A9DAA83621A9875D018F9CE9237024F12E47B84D7D436D0009BE005CC987C72F7A61EA701882CF
310
FE05504B0304140006080800A75E6F45F54771E63C01000046050000300000006662782F37463041324144352D453238412D343044372D393242412D3034384432413245373641382F636E782E786D6CCD94C14E032110865F85705F286A13D3B034F1E0137830DE5876BA6259D8C060ECDB0B755B35A6C643937A23C33FC9
310
FFCDFC19B97E1B1D7985986CF02D156C410978137AEB879666DC34B794AC958C21E01719255E8FD0D25AA64A0E31E4692EF5B0D1D9D5AAB37E3B173562B45D46489418A7536A6932CF306AA633861ED296F51A35132C420A391A28FD684798FB4D048DD05375B510378D108D583E08B15A5EAFC4F249F2AA54B20BC1CD7AEB
310
1162988809E5E18B9985E4F55BC91CEDACA904547D3A639DF592977F255371EB875987BBA9EAA6C959A3B18C890783804D11811E25FF102BC92BEF37EAFBBBC78303D2DB080643DC5D6800E2D4008EC65849C2DFF8F7C2DFB143F752702FB5ED93B0B3ADB3A11ED29A4A5C7FEEBFA448FBC1FDBFD01F8D9D3FF3E594A035FF
310
0FF9E0EB4CC47C7FF2CAD2EB0554EF504B0304140006080800A75E6F459BEE28DF7E000000A30000000B0000006662782F636E782E786D6C4D8CD10AC22018465F45FE7BCB64A5C174FCE17A8FD1DC909C0E9BD1E3A7B18BAE3E387CE7B4DD67F1E46DD3CBC5A0E07460406C78C4D1855941DE262A8174BA4D316E7F372061
310
58AC828A41B7738A79DDD168A721FB4ABD0BCF1D8A3B438EE64C7B2E9136CC087AE537A4AC918623EFC50565318E5529F3EB95AD79FD05504B0304140006080800A75E6F45A6D797065F0000008200000007000000636E782E786D6C4DCB3B0E80201045D1AD90E9FD7516806B51190811670C8A61F982B1B0BAC9C97B72CA
310
7B1037C6D3332918DA1E04D2CAC69353902EDB8C20262D23F3F59B81A079470595414B17391D1F19B4730A5583A7ED43BBE4025D9592775E5ADFFA01504B0304140006080800A75E6F454FEB6A7CA0000000F4000000130000005B436F6E74656E745F54797065735D2E786D6C7D8F4B0EC2300C44AF1279DFA6B0400835ED
310
02B8011730C16D239A8F121795DB93D02D6269CFBC19BBED573B8B17C564BC53B0AB1B10E4B47F18372A5878A88E20FAAEBDBD032591BD2E299898C349CAA427B2986A1FC86565F0D122E7318E32A07EE24872DF3407A9BD63725C71C980AEBDD080CBCCE2BAE6F5D69B7110E7CD57AA146008B3D1C8F92C5954F993BB1BF7
310
87F39A89ABC491D09600F9FDA2FB00504B0304140006080800A75E6F453DEE336E64000000790000001B0000006175746F6465736B2D64657369676E2D7061636B6167652E786D6C35CBC10E83200C00D05F21DCA56CA76D41FC96062B120735B69A7DBE268BB7777961F8D5AF396893C2ADB70FE7ADA196782C2DF776D7A9
310
7B5933C430F15651E5469C55D70F80A4992A3ADC954792C525AE70A1E4D6AD9816CC044FEFDF01FE3FDE907802504B0304140006080800A75E6F453E4E4E3DF8000000960100003B0000006662782F37463041324144352D453238412D343044372D393242412D3034384432413245373641382F7265736F75726365732F63
310
6F72652E786D6C8550CB6E833010FC15B477438C834A22E32880FA053DF566990DB5126CE447D5CFAF1DA8D49E7ADAD5ECCCECEEF0CBD7F2283ED1796D4D07B43C408146D9499BB983186EA485E222B8B336FCA24161E4821D6418049F9D8DEB0E296B029A8C1A3BE10E4AEF3140A11EA9E9C0AB0F5C642963480C7F2F57A9
310
EE72C692961B4FF018F5B44BF594DCF44DA303D19EC6767C61AF64607D4F8E43DF906BCB28A9C7FED0B2E17A1A869157592C78D0CBCF76E550069C40D4077A249412DABC517A6ED89936EFBCCA4CC17D70E9E77D69FE0E84436FA353E879B54DFFB8C675FADF356A1358BDBB6E0A0F82A6239F03C1AB9C522ACF0853CD898A
310
6F504B0304140006080800A75E6F459D311C38F2000000B1010000310000006662782F37463041324144352D453238412D343044372D393242412D3034384432413245373641382F636F72652E786D6C8D50CB6EC32010FC156BEFD886D8B51B61222AA75FD0536F08130725068B47D5CF2FC4AED4DE725A343BC3CC0E3D7D
310
2FF7E24B39AFAD1900973514CA483B69330F10C305F5509C1875D6863F34288C58D4001906466767E3BA43D29AA04C468D9DD40E0AEF558042DED363002FAF6A11A5882131FCAD5C85BC895995B8DC788C06BDFC4AA55322A80918A971833046B8FDC0F8D81E8EB8FDA45566321AA39E762B3D25777DD1CA01EBDE6B4EF8D8
310
A233E9396AEAB143AFE48DA3BAE947C2C9B97BE13DADB298511F5CBA79FF245FF7AC7C13FECB1CD7E989CCDA8403D90D37850786539EC782D12A1798C6A3DD3473D9EC07504B0304140006080800A75E6F457478F10053010000DD0200000C0000006662782F636F72652E786D6C8D525D6F832014FD2B8677B468CD6C8334
310
55B35FB0A7BD51A48E54C12098FEFC811F713EAC5B4C909C7BEF39F79C802FCFAE0D46AE07A1640E50780001974CD5423639B0E60E33105C08D64A991F6D2090B4E339F03020B8D1CAF60BC494345C7A54AA9A2F201D066E40C05A77C9C1C0BE7847436A8DEB181E614FD983363C44E1DC47B0B5A25E4645EDD8C45D700D48
310
76AAB2EA2D7987655214F0581629BC66098271551CB2A4BC9ECAB2C2911F26D8886E55679A53C36B40E2033A4284204A3F103AA7C919A59F38F29D040F463BCF8BA87707C8FDF6C4D18CEFF86C5FFFCD67853449BCF0CD130320C8AD3715088E7C3EEE3785B7CFD009BBFC0CBDB5AB85878346CE8CD24757A995DD4A236D2D
310
77D48760FA7034571DF344F01B4FFC82E735870B8ACAC6AD468DBBDEACF1EAFB9D7AAEE1689E8154BAA3EDB6DCBCE2766E423B4BEB3853ADD2FF995EADAE6146FE61926F504B0304140006080800A75E6F45C6570F3207010000B201000008000000636F72652E786D6C8D50C16E842014FC15F2EEA8E89ABA1B64B36AFA05
310
3DF5468175C92A18814DFBF785D526EDADA74766E6BD19869E3FE7093DD4EAB4352D90AC00A48CB0529BB185E0AFB801746674B5D6FF9201327C562D2418181D571B961D12D67865126AAC543BC89D531E9098E2A305276E6AE6190F3E2ADC3D5BB8B8F3516524DB748C7A3DFFAC8A5571AF24B0B220074C0826F51B21A7BA
310
3A91FA9DE649C968085AEE565A46777DD56A05D61C876678A95E715F751D3EF45D8D2F4D457039744553F59763DF0F344FCB8C3ABFC63FEF47624E8F1C7F245F9A6F14A31FD64EBB208692C89AE90B5841F344FC091D16F98FD0DAF8AADC0F6E1B0E1889819E44344E0DC6F1AC37CED436FB06504B01021400140006080800
310
A75E6F450000000000000000000000003700000000000000000000000000000000006662782F37463041324144352D453238412D343044372D393242412D3034384432413245373641382F617474726962757465732E62696E504B01021400140006080800A75E6F4500000000000000000000000035000000000000000000
310
00000000550000006662782F37463041324144352D453238412D343044372D393242412D3034384432413245373641382F76657274696365732E62696E504B01021400140006080800A75E6F45F270F13306000000040000003600000000000000000000000000A80000006662782F37463041324144352D453238412D3430
310
44372D393242412D3034384432413245373641382F747269616E676C65732E62696E504B01021400140006080800A75E6F4551464CB489000000430100003600000000000000000000000000020100006662782F37463041324144352D453238412D343044372D393242412D3034384432413245373641382F646972656374
310
6F72792E786D6C504B01021400140006080800A75E6F454F02056E3E070000201C00003400000000000000000000000000DF0100006662782F37463041324144352D453238412D343044372D393242412D3034384432413245373641382F6F626A656374732E786D6C504B01021400140006080800A75E6F45F54771E63C01
310
00004605000030000000000000000000000000006F0900006662782F37463041324144352D453238412D343044372D393242412D3034384432413245373641382F636E782E786D6C504B01021400140006080800A75E6F459BEE28DF7E000000A30000000B00000000000000000000000000F90A00006662782F636E782E78
310
6D6C504B01021400140006080800A75E6F45A6D797065F000000820000000700000000000000000000000000A00B0000636E782E786D6C504B01021400140006080800A75E6F454FEB6A7CA0000000F40000001300000000000000000000000000240C00005B436F6E74656E745F54797065735D2E786D6C504B0102140014
310
0006080800A75E6F453DEE336E64000000790000001B00000000000000000000000000F50C00006175746F6465736B2D64657369676E2D7061636B6167652E786D6C504B01021400140006080800A75E6F453E4E4E3DF8000000960100003B00000000000000000000000000920D00006662782F37463041324144352D4532
310
38412D343044372D393242412D3034384432413245373641382F7265736F75726365732F636F72652E786D6C504B01021400140006080800A75E6F459D311C38F2000000B10100003100000000000000000000000000E30E00006662782F37463041324144352D453238412D343044372D393242412D303438443241324537
310
3641382F636F72652E786D6C504B01021400140006080800A75E6F457478F10053010000DD0200000C00000000000000000000000000241000006662782F636F72652E786D6C504B01021400140006080800A75E6F45C6570F3207010000B20100000800000000000000000000000000A1110000636F72652E786D6C504B05
310
06000000000E000E0080040000CE1200000000
  0
CELLSTYLEMAP
  5
1E9
102
{ACAD_REACTORS
330
51
102
}
330
51
100
AcDbCellStyleMap
 90
        3
300
CELLSTYLE
  1
TABLEFORMAT_BEGIN
 90
        5
170
     1
 91
        0
 92
    32768
 62
   257
 93
        1
300
CONTENTFORMAT
  1
CONTENTFORMAT_BEGIN
 90
        0
 91
        0
 92
        4
 93
        0
300

 40
0.0
140
1.0
 94
        5
 62
   256
340
24
144
4.0
309
CONTENTFORMAT_END
171
     1
301
MARGIN
  1
CELLMARGIN_BEGIN
 40
1.5
 40
1.5
 40
1.5
 40
1.5
 40
0.18
 40
0.18
309
CELLMARGIN_END
 94
        6
 95
        1
302
GRIDFORMAT
  1
GRIDFORMAT_BEGIN
 90
        0
 91
        1
 62
     0
 92
       -2
340
0
 93
        0
 40
0.045
309
GRIDFORMAT_END
 95
        2
302
GRIDFORMAT
  1
GRIDFORMAT_BEGIN
 90
        0
 91
        1
 62
     0
 92
       -2
340
0
 93
        0
 40
0.045
309
GRIDFORMAT_END
 95
        4
302
GRIDFORMAT
  1
GRIDFORMAT_BEGIN
 90
        0
 91
        1
 62
     0
 92
       -2
340
0
 93
        0
 40
0.045
309
GRIDFORMAT_END
 95
        8
302
GRIDFORMAT
  1
GRIDFORMAT_BEGIN
 90
        0
 91
        1
 62
     0
 92
       -2
340
0
 93
        0
 40
0.045
309
GRIDFORMAT_END
 95
       16
302
GRIDFORMAT
  1
GRIDFORMAT_BEGIN
 90
        0
 91
        1
 62
     0
 92
       -2
340
0
 93
        0
 40
0.045
309
GRIDFORMAT_END
 95
       32
302
GRIDFORMAT
  1
GRIDFORMAT_BEGIN
 90
        0
 91
        1
 62
     0
 92
       -2
340
0
 93
        0
 40
0.045
309
GRIDFORMAT_END
309
TABLEFORMAT_END
  1
CELLSTYLE_BEGIN
 90
        1
 91
        1
300
_TITLE
309
CELLSTYLE_END
300
CELLSTYLE
  1
TABLEFORMAT_BEGIN
 90
        5
170
     1
 91
        0
 92
        0
 62
   257
 93
        1
300
CONTENTFORMAT
  1
CONTENTFORMAT_BEGIN
 90
        0
 91
        0
 92
        4
 93
        0
300

 40
0.0
140
1.0
 94
        5
 62
   256
340
24
144
3.5
309
CONTENTFORMAT_END
171
     1
301
MARGIN
  1
CELLMARGIN_BEGIN
 40
1.5
 40
1.5
 40
1.5
 40
1.5
 40
0.18
 40
0.18
309
CELLMARGIN_END
 94
        6
 95
        1
302
GRIDFORMAT
  1
GRIDFORMAT_BEGIN
 90
        0
 91
        1
 62
     0
 92
       -2
340
0
 93
        0
 40
0.045
309
GRIDFORMAT_END
 95
        2
302
GRIDFORMAT
  1
GRIDFORMAT_BEGIN
 90
        0
 91
        1
 62
     0
 92
       -2
340
0
 93
        0
 40
0.045
309
GRIDFORMAT_END
 95
        4
302
GRIDFORMAT
  1
GRIDFORMAT_BEGIN
 90
        0
 91
        1
 62
     0
 92
       -2
340
0
 93
        0
 40
0.045
309
GRIDFORMAT_END
 95
        8
302
GRIDFORMAT
  1
GRIDFORMAT_BEGIN
 90
        0
 91
        1
 62
     0
 92
       -2
340
0
 93
        0
 40
0.045
309
GRIDFORMAT_END
 95
       16
302
GRIDFORMAT
  1
GRIDFORMAT_BEGIN
 90
        0
 91
        1
 62
     0
 92
       -2
340
0
 93
        0
 40
0.045
309
GRIDFORMAT_END
 95
       32
302
GRIDFORMAT
  1
GRIDFORMAT_BEGIN
 90
        0
 91
        1
 62
     0
 92
       -2
340
0
 93
        0
 40
0.045
309
GRIDFORMAT_END
309
TABLEFORMAT_END
  1
CELLSTYLE_BEGIN
 90
        2
 91
        1
300
_HEADER
309
CELLSTYLE_END
300
CELLSTYLE
  1
TABLEFORMAT_BEGIN
 90
        5
170
     1
 91
        0
 92
        0
 62
   257
 93
        1
300
CONTENTFORMAT
  1
CONTENTFORMAT_BEGIN
 90
        0
 91
        0
 92
        4
 93
        0
300

 40
0.0
140
1.0
 94
        2
 62
   256
340
24
144
2.5
309
CONTENTFORMAT_END
171
     1
301
MARGIN
  1
CELLMARGIN_BEGIN
 40
1.5
 40
1.5
 40
1.5
 40
1.5
 40
0.18
 40
0.18
309
CELLMARGIN_END
 94
        6
 95
        1
302
GRIDFORMAT
  1
GRIDFORMAT_BEGIN
 90
        0
 91
        1
 62
     0
 92
       -2
340
0
 93
        0
 40
0.045
309
GRIDFORMAT_END
 95
        2
302
GRIDFORMAT
  1
GRIDFORMAT_BEGIN
 90
        0
 91
        1
 62
     0
 92
       -2
340
0
 93
        0
 40
0.045
309
GRIDFORMAT_END
 95
        4
302
GRIDFORMAT
  1
GRIDFORMAT_BEGIN
 90
        0
 91
        1
 62
     0
 92
       -2
340
0
 93
        0
 40
0.045
309
GRIDFORMAT_END
 95
        8
302
GRIDFORMAT
  1
GRIDFORMAT_BEGIN
 90
        0
 91
        1
 62
     0
 92
       -2
340
0
 93
        0
 40
0.045
309
GRIDFORMAT_END
 95
       16
302
GRIDFORMAT
  1
GRIDFORMAT_BEGIN
 90
        0
 91
        1
 62
     0
 92
       -2
340
0
 93
        0
 40
0.045
309
GRIDFORMAT_END
 95
       32
302
GRIDFORMAT
  1
GRIDFORMAT_BEGIN
 90
        0
 91
        1
 62
     0
 92
       -2
340
0
 93
        0
 40
0.045
309
GRIDFORMAT_END
309
TABLEFORMAT_END
  1
CELLSTYLE_BEGIN
 90
        3
 91
        2
300
_DATA
309
CELLSTYLE_END
  0
CELLSTYLEMAP
  5
1EA
102
{ACAD_REACTORS
330
55
102
}
330
55
100
AcDbCellStyleMap
 90
        3
300
CELLSTYLE
  1
TABLEFORMAT_BEGIN
 90
        5
170
     1
 91
        0
 92
    32768
 62
   257
 93
        1
300
CONTENTFORMAT
  1
CONTENTFORMAT_BEGIN
 90
        0
 91
        0
 92
        4
 93
        0
300

 40
0.0
140
1.0
 94
        5
 62
     0
340
24
144
3.0
309
CONTENTFORMAT_END
171
     1
301
MARGIN
  1
CELLMARGIN_BEGIN
 40
1.5
 40
1.5
 40
1.5
 40
1.5
 40
0.18
 40
0.18
309
CELLMARGIN_END
 94
        6
 95
        1
302
GRIDFORMAT
  1
GRIDFORMAT_BEGIN
 90
        0
 91
        1
 62
     0
 92
       -2
340
0
 93
        0
 40
0.045
309
GRIDFORMAT_END
 95
        2
302
GRIDFORMAT
  1
GRIDFORMAT_BEGIN
 90
        0
 91
        1
 62
     0
 92
       -2
340
0
 93
        0
 40
0.045
309
GRIDFORMAT_END
 95
        4
302
GRIDFORMAT
  1
GRIDFORMAT_BEGIN
 90
        0
 91
        1
 62
     0
 92
       -2
340
0
 93
        0
 40
0.045
309
GRIDFORMAT_END
 95
        8
302
GRIDFORMAT
  1
GRIDFORMAT_BEGIN
 90
        0
 91
        1
 62
     0
 92
       -2
340
0
 93
        0
 40
0.045
309
GRIDFORMAT_END
 95
       16
302
GRIDFORMAT
  1
GRIDFORMAT_BEGIN
 90
        0
 91
        1
 62
     0
 92
       -2
340
0
 93
        0
 40
0.045
309
GRIDFORMAT_END
 95
       32
302
GRIDFORMAT
  1
GRIDFORMAT_BEGIN
 90
        0
 91
        1
 62
     0
 92
       -2
340
0
 93
        0
 40
0.045
309
GRIDFORMAT_END
309
TABLEFORMAT_END
  1
CELLSTYLE_BEGIN
 90
        1
 91
        1
300
_TITLE
309
CELLSTYLE_END
300
CELLSTYLE
  1
TABLEFORMAT_BEGIN
 90
        5
170
     1
 91
        0
 92
        0
 62
   257
 93
        1
300
CONTENTFORMAT
  1
CONTENTFORMAT_BEGIN
 90
        0
 91
        0
 92
        4
 93
        0
300

 40
0.0
140
1.0
 94
        5
 62
     0
340
24
144
2.5
309
CONTENTFORMAT_END
171
     1
301
MARGIN
  1
CELLMARGIN_BEGIN
 40
1.5
 40
1.5
 40
1.5
 40
1.5
 40
0.18
 40
0.18
309
CELLMARGIN_END
 94
        6
 95
        1
302
GRIDFORMAT
  1
GRIDFORMAT_BEGIN
 90
        0
 91
        1
 62
     0
 92
       -2
340
0
 93
        0
 40
0.045
309
GRIDFORMAT_END
 95
        2
302
GRIDFORMAT
  1
GRIDFORMAT_BEGIN
 90
        0
 91
        1
 62
     0
 92
       -2
340
0
 93
        0
 40
0.045
309
GRIDFORMAT_END
 95
        4
302
GRIDFORMAT
  1
GRIDFORMAT_BEGIN
 90
        0
 91
        1
 62
     0
 92
       -2
340
0
 93
        0
 40
0.045
309
GRIDFORMAT_END
 95
        8
302
GRIDFORMAT
  1
GRIDFORMAT_BEGIN
 90
        0
 91
        1
 62
     0
 92
       -2
340
0
 93
        0
 40
0.045
309
GRIDFORMAT_END
 95
       16
302
GRIDFORMAT
  1
GRIDFORMAT_BEGIN
 90
        0
 91
        1
 62
     0
 92
       -2
340
0
 93
        0
 40
0.045
309
GRIDFORMAT_END
 95
       32
302
GRIDFORMAT
  1
GRIDFORMAT_BEGIN
 90
        0
 91
        1
 62
     0
 92
       -2
340
0
 93
        0
 40
0.045
309
GRIDFORMAT_END
309
TABLEFORMAT_END
  1
CELLSTYLE_BEGIN
 90
        2
 91
        1
300
_HEADER
309
CELLSTYLE_END
300
CELLSTYLE
  1
TABLEFORMAT_BEGIN
 90
        5
170
     1
 91
        0
 92
        0
 62
   257
 93
        1
300
CONTENTFORMAT
  1
CONTENTFORMAT_BEGIN
 90
        0
 91
        0
 92
        4
 93
        0
300

 40
0.0
140
1.0
 94
        2
 62
     0
340
24
144
2.0
309
CONTENTFORMAT_END
171
     1
301
MARGIN
  1
CELLMARGIN_BEGIN
 40
1.25
 40
1.25
 40
1.5
 40
1.5
 40
0.18
 40
0.18
309
CELLMARGIN_END
 94
        6
 95
        1
302
GRIDFORMAT
  1
GRIDFORMAT_BEGIN
 90
        0
 91
        1
 62
     0
 92
       -2
340
0
 93
        0
 40
0.045
309
GRIDFORMAT_END
 95
        2
302
GRIDFORMAT
  1
GRIDFORMAT_BEGIN
 90
        0
 91
        1
 62
     0
 92
       -2
340
0
 93
        0
 40
0.045
309
GRIDFORMAT_END
 95
        4
302
GRIDFORMAT
  1
GRIDFORMAT_BEGIN
 90
        0
 91
        1
 62
     0
 92
       -2
340
0
 93
        0
 40
0.045
309
GRIDFORMAT_END
 95
        8
302
GRIDFORMAT
  1
GRIDFORMAT_BEGIN
 90
        0
 91
        1
 62
     0
 92
       -2
340
0
 93
        0
 40
0.045
309
GRIDFORMAT_END
 95
       16
302
GRIDFORMAT
  1
GRIDFORMAT_BEGIN
 90
        0
 91
        1
 62
     0
 92
       -2
340
0
 93
        0
 40
0.045
309
GRIDFORMAT_END
 95
       32
302
GRIDFORMAT
  1
GRIDFORMAT_BEGIN
 90
        0
 91
        1
 62
     0
 92
       -2
340
0
 93
        0
 40
0.045
309
GRIDFORMAT_END
309
TABLEFORMAT_END
  1
CELLSTYLE_BEGIN
 90
        3
 91
        2
300
_DATA
309
CELLSTYLE_END
  0
ENDSEC
  0
SECTION
  2
ACDSDATA
 70
     2
 71
     8
  0
ACDSSCHEMA
 90
        0
  1
AcDb_Thumbnail_Schema
  2
AcDbDs::ID
280
    10
 91
        8
  2
Thumbnail_Data
280
    15
 91
        0
101
ACDSRECORD
 95
        0
 90
        1
  2
AcDbDs::TreatedAsObjectData
280
     1
291
     1
101
ACDSRECORD
 95
        0
 90
        2
  2
AcDbDs::Legacy
280
     1
291
     1
101
ACDSRECORD
  1
AcDbDs::ID
 90
        3
  2
AcDs:Indexable
280
     1
291
     1
101
ACDSRECORD
  1
AcDbDs::ID
 90
        4
  2
AcDbDs::HandleAttribute
280
     7
282
     1
  0
ACDSSCHEMA
 90
        1
  1
AcDbDs::TreatedAsObjectDataSchema
  2
AcDbDs::TreatedAsObjectData
280
     1
 91
        0
  0
ACDSSCHEMA
 90
        2
  1
AcDbDs::LegacySchema
  2
AcDbDs::Legacy
280
     1
 91
        0
  0
ACDSSCHEMA
 90
        3
  1
AcDbDs::IndexedPropertySchema
  2
AcDs:Indexable
280
     1
 91
        0
  0
ACDSSCHEMA
 90
        4
  1
AcDbDs::HandleAttributeSchema
  2
AcDbDs::HandleAttribute
280
     7
 91
        1
284
     1
  0
ACDSRECORD
 90
        0
  2
AcDbDs::ID
280
    10
320
12
  2
Thumbnail_Data
280
    15
 94
     1558
310
89504E470D0A1A0A0000000D4948445200000100000000700803000000C6F95E2100000300504C5445000000000000C8C8C80000000000000000000000000000000000000000000000000000330000660000990000CC0000FF0033000033330033660033990033CC0033FF0066000066330066660066990066CC0066FF0099
310
000099330099660099990099CC0099FF00CC0000CC3300CC6600CC9900CCCC00CCFF00FF0000FF3300FF6600FF9900FFCC00FFFF3300003300333300663300993300CC3300FF3333003333333333663333993333CC3333FF3366003366333366663366993366CC3366FF3399003399333399663399993399CC3399FF33CC00
310
33CC3333CC6633CC9933CCCC33CCFF33FF0033FF3333FF6633FF9933FFCC33FFFF6600006600336600666600996600CC6600FF6633006633336633666633996633CC6633FF6666006666336666666666996666CC6666FF6699006699336699666699996699CC6699FF66CC0066CC3366CC6666CC9966CCCC66CCFF66FF0066
310
FF3366FF6666FF9966FFCC66FFFF9900009900339900669900999900CC9900FF9933009933339933669933999933CC9933FF9966009966339966669966999966CC9966FF9999009999339999669999999999CC9999FF99CC0099CC3399CC6699CC9999CCCC99CCFF99FF0099FF3399FF6699FF9999FFCC99FFFFCC0000CC00
310
33CC0066CC0099CC00CCCC00FFCC3300CC3333CC3366CC3399CC33CCCC33FFCC6600CC6633CC6666CC6699CC66CCCC66FFCC9900CC9933CC9966CC9999CC99CCCC99FFCCCC00CCCC33CCCC66CCCC99CCCCCCCCCCFFCCFF00CCFF33CCFF66CCFF99CCFFCCCCFFFFFF0000FF0033FF0066FF0099FF00CCFF00FFFF3300FF3333
310
FF3366FF3399FF33CCFF33FFFF6600FF6633FF6666FF6699FF66CCFF66FFFF9900FF9933FF9966FF9999FF99CCFF99FFFFCC00FFCC33FFCC66FFCC99FFCCCCFFCCFFFFFF00FFFF33FFFF66FFFF99FFFFCCFFFFFF0000000D0D0D1A1A1A2828283535354343435050505D5D5D6B6B6B787878868686939393A1A1A1AEAEAEBB
310
BBBBC9C9C9D6D6D6E4E4E4F1F1F1FFFFFF00000000000000000000000000000000000000000000000000000000000008F1915C000002D14944415478DAED9C5B6EC4200C45D950F6FF9715B00416E19FF96F8C318F29194DABAA1AF95EAAD20451553EF10BC7D3945E8EFC4F63F7A713D0C8F27D600180D7000220807000DE
310
73F59101FC442202208080007E92D97C2E80BFCC6E690258A930358000088061304018A406100001100001FC4314404B851F3A904D800030019CF7004E0000673EFBA800C6ED0902E076EFC930C844880008001B00ABC28C02F40104400035293C0303386E474ED3C120B20688FEACD371F8A5AC9B430318F2975264223003
310
881C0665927F211012409D8BC95ACA759975922ABEAEEA8FBA50D2C5A6D4BDBE5B2F230068A24C82DD8CA0A970797BE4DD5A0413B879F4CD09BE00102A0A34F3565B2FEE045CCAA42EA0486E1B7C63D028D0838098FC232AC68D02CF2B96F8551DF01B410220877EDB24C92EC22642DB4C50C53D7CB28BD889D0EA152EAD17
310
D77C577F3D1308900F480B80B682E5035CEDAB36B4396426B83D0C5D565FD55EFCD94B5D017282E3A90F6D40F1016EF54F86D097619C60177D18025622D445374340CA046516BD6B435427B83D0C6D2AC24889D09C032E086000A8DAEB29C8BEC46E9100A8B04D688391EA956D7E58EB54740D3006478321A60920FD01D2D4
310
BE3DFFA60DBA80A401FED4676D8869021B9D9E3DFFF72800A001B2CD0304AD22340EC260A7C13C8B2EE34894A0CAE29EFFA7E54804550F588B6112B71E7057127343986B03604E508627802C8BCB93274840ADB2E3A93F95C5A12A424B0E885816B73762D3BBC1A03E605F124BAD4550A7FE6E10A92ADC5F091E88FD013237
310
48F41BA8FE80643D31BD51B2AD8405507E3B8200B076D0D62B97DA4DAACD62F5D2DB465BEF68596EA01A254BC446C91AFA8AEC355C5DC02BE9AF5F0CE3047BFB63B6C6E8B4344AF6064ADF75B63EC9A0A741F8464997D99E7F27C0CF0CA17C66E88DCD7100F093A3BFD3000220004800FCFF01348178001806690204400004
310
C028C0284013602A4C0DF868005F50D46F9D590DB1280000000049454E44AE426082
  0
ACDSRECORD
 90
        0
  2
AcDbDs::ID
280
    10
320
1B
  2
Thumbnail_Data
280
    15
 94
     3008
310
89504E470D0A1A0A0000000D49484452000000B5000001000803000000C2FDC7E900000300504C5445000000000000C8C8C80000000000000000000000000000000000000000000000000000330000660000990000CC0000FF0033000033330033660033990033CC0033FF0066000066330066660066990066CC0066FF0099
310
000099330099660099990099CC0099FF00CC0000CC3300CC6600CC9900CCCC00CCFF00FF0000FF3300FF6600FF9900FFCC00FFFF3300003300333300663300993300CC3300FF3333003333333333663333993333CC3333FF3366003366333366663366993366CC3366FF3399003399333399663399993399CC3399FF33CC00
310
33CC3333CC6633CC9933CCCC33CCFF33FF0033FF3333FF6633FF9933FFCC33FFFF6600006600336600666600996600CC6600FF6633006633336633666633996633CC6633FF6666006666336666666666996666CC6666FF6699006699336699666699996699CC6699FF66CC0066CC3366CC6666CC9966CCCC66CCFF66FF0066
310
FF3366FF6666FF9966FFCC66FFFF9900009900339900669900999900CC9900FF9933009933339933669933999933CC9933FF9966009966339966669966999966CC9966FF9999009999339999669999999999CC9999FF99CC0099CC3399CC6699CC9999CCCC99CCFF99FF0099FF3399FF6699FF9999FFCC99FFFFCC0000CC00
310
33CC0066CC0099CC00CCCC00FFCC3300CC3333CC3366CC3399CC33CCCC33FFCC6600CC6633CC6666CC6699CC66CCCC66FFCC9900CC9933CC9966CC9999CC99CCCC99FFCCCC00CCCC33CCCC66CCCC99CCCCCCCCCCFFCCFF00CCFF33CCFF66CCFF99CCFFCCCCFFFFFF0000FF0033FF0066FF0099FF00CCFF00FFFF3300FF3333
310
FF3366FF3399FF33CCFF33FFFF6600FF6633FF6666FF6699FF66CCFF66FFFF9900FF9933FF9966FF9999FF99CCFF99FFFFCC00FFCC33FFCC66FFCC99FFCCCCFFCCFFFFFF00FFFF33FFFF66FFFF99FFFFCCFFFFFF0000000D0D0D1A1A1A2828283535354343435050505D5D5D6B6B6B787878868686939393A1A1A1AEAEAEBB
310
BBBBC9C9C9D6D6D6E4E4E4F1F1F1FFFFFF00000000000000000000000000000000000000000000000000000000000008F1915C0000087B4944415478DAED9D4F72E23A10C69BCC05C80D6691ADEFE065B8C16397A378497995237861EF291659E60454BD0B64C1726A6A6A9EC6D4EC9F5A2DC9B231D8806DC94937FF8C21F0
310
F3C7A7965AC6047EFD8219065333750FEA7FE71415B5D986BFE1471B75F0DE606AFFD4913AAB0BB42DD24D74E65523F950649F194593694D6F8CEF4D0B6017AA07F53AFB90BEADFE583F2B9AD021110965C4AA403529381B64D921B29F84A37534A1D660892A19ADD6505B673E96C8D9581B005351474307E790CF45FD3E7C
310
4C413DB83C4CCDD44CCDD44CCDD44CED817A3F4834A9FF1B202E6A2DF41D73DB63C5BE29C929F5B65B477139BC50AB502BDC0D7890A79EEC5EA81FDEB6DBDDDB9BBC7EAB3FF7E1941A42A1DE99D8EE766F46F5F36681C0A8097DBBDBBE6D2F7BDC0157EFE49FDAC1AF9BFCA1D52CF2CA1775D9CE2DADDEEE725258010B5F5A
310
973276F2BC2B4FF9A55D3A5C0EA350375B4E3BB51B97156F0B5F5A37B89BF0DBCBA9250C6A07DF91BC853B491279098DDA729FC0222FC02B618745BD6D909ADBD7D7D7442D647992E7791100F5EE54D544DF41DA2AD23449247591FBD3FAA1890A2E2FACED432948DA941E943ACB4B967BA3768495A49219EF83B959DB0DC2
310
0B6A9C6B6A5CB84C7D6F11D0456DB99ADE58AF9776ADBC42A5D384D0A5D44587AF6F883EBDCCB13C1E2D1471229579D65A8693E9EC06A5896A8BF918D4DD5A1F31B22A513C59C5496C09FDE8D81AB7C8284D1EF1452D8EA2660F3039422E2EEAD478960D3295CC85B2750657527758B837B53812B571B29B3E168D4498A669
310
6294C60F28CBBA72C865A43BA885106E13AC3C6DB701566B65F774A33E045C99AB676173F441AD8B925AEE4B92663FB388A991A61B344E96A1DAEAF1AB7D3D2CF5A2EAB6DB3A47A2267F50F6D0D4597665BE3E9BD36ED59AD62F313DC7CF765407961A928D4E2096BA2846D0BA3B5F5BAD173A39AFD792305E2BEC849278A2
310
A9ADD8C8AD5EA3E8D27A7C5FCB362763895AAFD62B52DF582496279D4352344852A8F14991E5DEA961B55481A2E33D676C52F95A752FD218EA0FA4D4FEA98DD6CBB5D43A8626B5B688EA5F0ADD16AFCE7C43B74649BD5CD2B8435E6238A556F6D0AD11074E380C29BC6BFD8D9AA31E9CC650F539C621D81A516BA971562872
310
AFD476D4A1C61D6BCC229234D30582EB6B2C0632C8506675F14A6D8C4DAD11B963A88A9A181E21D77E91026728363217B977872C90F91F74C863FC48D42A396F907A4963BE04074C56675937C2F0ADB17F2F03D6202AEBC98BA5360EC9253522E7EAAA50A9A47316A7A7D6F8F5CB5B1D42D04B451D57994F6ABDA28C526458
310
96E7E62257EE4A6FD4BA0403D5C73C6215207BF415D088944A1ACC28B96E8BE80CA9B77C1A169D7751BFB751BF5F438D0D71692A97F8F9D1CDD72BE5105D73E509E94C53287750BFEFCDF78290DA2CF7A09645C15195BB8B4555D7623C43DCA813122B7642DEC0381E876E8DEF7DAB5D2AC11CE6052C17556B746BF4441704
310
7AAEEA7835F540151846294165237CAC1EFDB658B97D23A899103560729811DA33B5F187E58CF5E2D377FD40AE8B3397790CEAEE7C8DC88A7A0DF5FA7C61EBF3A7A727439D583F1B665F5A97A4F512F45458B3783C1C0EDFBF9F7AE356EA4146AA1A02CC98CE7DF673AC980F2F2F2F31AD29CB86D09EB4AE5157E942F93A7E
310
5101B0D96C5C9D6BD0BEA96D3BA4DBF8E5E7CF1F3F10F8901CA0C5D06353DBEFA49EA3DEEADAD679F807C6C631F9AE95F94EEAB6AF58EFA1F155DA766ABD63CE69881B8A8A79B73BA3F4BDAD51ED2206F89041BB0B44057951EB5D35D544E6C01678B09B5001B750DF3A0EF9A0D31EAF35B4C296F7E5A6E847DFF1FA0C3542
310
A79B8DC9D6D9015FE67030C8E559E4F2C6D1D387863C17BDF6484B7B1C7EA7E946511FDC77D86EEBCC651DF766EA8ED89FAC68A7464F242EED56213798CB16E49B1CD222B650E736EA330EA9F686E21E73835A111FCB1353DC49EDB64DDA65A788CD72AFD6487B9C1177778A54B7F110D4278EA5E34950547D6849BF1C423B
310
CBDB806868A599DB952EEFAD1B458467492C40DFF4A01EFB5B885DD49215714514117FD4C72143C5EDBE8EA2EA0826BA173E351DEF852A038A1E2C75B347474F286050F8E8EBCE5E260487083A984E093E0B5F9BC3E85066ED10E7B8BA707D2D1C5F43DFCC170435C92CC8D7613AA4DECEC4C9719B73C8D715B45D82795057
310
C72247C252ABE9CA90A985C20573D4B19841BEB65A0BC20F54EB868A51A495B65ACFC421CD24328F311F0D9CD478156692F9CC2F12043EE6BBD0A38B707BF45A6BD4BDA13B529DC3E8699623D5AA96B12355984155A0CB5C3B729AC748951A2195B9220AD721A7B33800F6474E6653A38BC6DCD33C6A199A6BD7F3906AAA2F
310
586A335FFA21D4C43A2EA9B39A76DFEB49F7F373AA3EA83FAE8D59528B4072C88739EDD122D2CDEE7E99EA7476BF4C00F9FA865977FF990FCCAE3BB3E3AEC75E52DFD4B7ED250D40EBF34F09887A886F5A04AD35538F4F1D7E553013ADB935323553736BE47CCDBE666AEE1B3DFFFA5AF00E112D574C3D21F55D47AFB1D69F
310
AB3572DFC87D233B84A9B996E11C3215F510BF9C3439758F60EAAF443DCE2FDD8DAEF528BFA71A24F53CB5666AA6666AA6FE7AD4DCCB30355333F5ACA9C7F9AF382156601783A9999AA9999AA947A19EE5FF800D3C989AA9999AA9999AA9A7A66E395CEAEE771AEC85983A006A68E3BEF74DA3BEF1F5A8076FF803BEE4B55A
310
C32C1D02EC90E972C8ED2AF9CC21F3A4E67CCDD4E3E590D1A94708A6666AA6666AA6666AA6666AA60EAC6EF4A975F7E7C0D49FD221A3CFBACF923AFCF0A9F5DF593AC44A77DD1F7D2EEAA1A6F6FA52F764B7CF636ADFD453FB7A90CC37E46EC67E99EF2AC9CF683D19B5C564EAB19BE3B07DE364D4D775327F2FE79090A8FF
310
B485FFCCD79143DAF2DE9FFB7A99AF49DDA7BFE93F529D526B6A5E03504763C6FCA95B13C424F97A00ADEB4DED6B517B8D3F578E54E714967A76C1D44CDD453DC3F81FEB6C4825A4B135370000000049454E44AE426082
  0
ENDSEC
  0
EOF
